Contacts | Watch movie | 2014 Movies

Скачать порно через торрент Public Pissing Team Общественный групповой пис UnionPeer.org бесплатно онлайн HD качество

Скачать новое порно 2015, 2014 новинки через торрент UnionPeer.org

Порно торрент бесплатно ЮнионПир.орг

Статистика раздачи
Размер:  1.42 GB   |    Зарегистрирован:  4 года 9 месяцев   |    .torrent скачан:  559 раз   |   
Раздают:  1  
   
загрузка...
 
Автор Сообщение

LinGr

avatar LinGr


Оригинальное название: Public Pissing Team
Год выхода: 2000
Страна: Голландия
Жанр: Европейские девушки, Экстремальный секс, Золотой дождь, 18 летние - тинэйджеры, Анальный секс, Групповой секс
Продолжительность: 01:13:53
Сценарий и режиссура: Томас Смолар (Thomas Smolar)
Студия: AVN Production
В ролях: Томас Смолар и его пивные очаровашки Николь, Сандра и Люси
Перевод: Любительский (одноголосый, SP Company)
Субтитры: нет
Описание: Lovers piss on everyone's mind
Thomas with his girlfriend Nicole otvyazny, Sandra and Lucy walk through the city. Normal course! Unusual in this outing, only one - they are specially pressurized beer and water to make it than to write, in the sense of piss!In a phone booth, a garbage bin at the bus stop, in the bushes - anywhere they selflessly let their streams. Well, then detached houses have the full program. Solid urinoterapiya!
Перевод: Любители пописать у всех на виду
Томас со своими отвязными подружками Николь, Сандрой и Люси гуляет по городу. Нормальный ход! Необычное в этой прогулке только одно – они специально накачиваются пивом и водой, чтобы было чем ПИСАТЬ, в смысле мочиться! В телефонной будке, за мусорным баком, на автобусной остановке, в кустиках – везде они самозабвенно пускают свои струйки. Ну, а потом дома отрываются уже по полной программе. Сплошная уринотерапия!
Качество: DVDRip
Формат: AVI
Видео кодек: XviD
Видео: XviD MPEG-4, 720x544 (4:3), 25 fps, 2545 kbps avg, 0.260 bit/pixel
Аудио кодек: MP2
Звук: MPEG Layer 2, 2 ch, 48 kHz, 192.00 kbps avg
....Public Pissing Team.avi
General
Complete name : Public Pissing Team.avi
Format : AVI
Format/Info : Audio Video Interleave
File size : 1.42 GiB
Duration : 1h 13mn
Overall bit rate : 2 744 Kbps
Writing application : VirtualDubMod 1.5.4.1 (build 2178/release)
Writing library : VirtualDubMod build 2178/release
Video #0
ID : 0
Format : MPEG-4 Visual
Format profile : [email protected]
Format settings, BVOP : Yes
Format settings, QPel : No
Format settings, GMC : No warppoints
Format settings, Matrix : Custom
Codec ID : XVID
Codec ID/Hint : XviD
Duration : 1h 13mn
Bit rate : 2 545 Kbps
Width : 720 pixels
Height : 544 pixels
Display aspect ratio : 4:3
Frame rate : 25.000 fps
Resolution : 24 bits
Colorimetry : 4:2:0
Scan type : Progressive
Bits/(Pixel*Frame) : 0.260
Stream size : 1.31 GiB (93%)
Writing library : XviD 1.1.2 (UTC 2006-11-01)
Audio #1
ID : 1
Format : MPEG Audio
Format version : Version 1
Format profile : Layer 2
Codec ID : 50
Codec ID/Hint : MP1
Duration : 1h 13mn
Bit rate mode : Constant
Bit rate : 192 Kbps
Channel(s) : 2 channels
Sampling rate : 48.0 KHz
Resolution : 16 bits
Stream size : 101 MiB (7%)
Alignment : Aligned on interleaves
Interleave, duration : 80 ms (2.00 video frames)
Interleave, preload duration : 504 ms
Language : Russian


Трекер:  [ 16-Окт-2013 17:46 ]

  

Скачать .torrent

Размер .torrent файла 14 KB


Размер: 1.42 GB
Хэш (hash) релиза: b3bdaa67122ef7e179843cba643aaf461ff42601

Еще никто не оставлял запись к записи скачать торрент Public Pissing Team Общественный групповой пис . Будь первым!

!Обратная связь