Серия книг - «Большая фантастика» [25 книг] (2016-2018) FB2 | Charlie Puth | 1x05 Super Dragon Ball Heroes

Скачать порно через торрент Fetisch: Samenschlampe Фетиш: Семена сука UnionPeer.org бесплатно онлайн HD качество

Скачать новое порно 2015, 2014 новинки через торрент UnionPeer.org

Порно торрент бесплатно ЮнионПир.орг

Статистика раздачи
Размер:  1.04 GB   |    Зарегистрирован:  5 лет 1 месяц   |    .torrent скачан:  319 раз   |   
Раздают:  1  
   
загрузка...
 
Автор Сообщение

LinGr

avatar LinGr


Fetisch: Samenschlampe / Фетиш: Семена сука

Год производства: 1999 г.
Страна: Германия
Жанр: Anal, Footfetish, MILF, Oral, Pantyhose, Swallowing
Продолжительность: 01:45:24
Язык: Немецкий
Студия: BEX Television

В ролях: Не указаны в титрах - Eniko Borinsky, вторая сцена.

Описание (приблизительный перевод): Немецкие проститутки и стриптизерши на кончиках ваших пальцев! Это роговые богини секса держат мужчин Камминг течение всего дня. Эти грязные шлюхи показать вам некоторые дополнительные шаги как Ласки, чулок игры и многое другое, чтобы убедиться, что все взрывные времени.

Качество видео: DVDRip
Формат видео: AVI
Видео кодек: XviD
Аудио кодек: MP3
Видео: MPEG-4 YUV420p 640x480 1249kbps 25fps
Аудио: MP3 44100Hz 2ch s16 160kbps
GeneralComplete name : fetisch.samenschlampe.aviFormat : AVIFormat/Info : Audio Video InterleaveFile size : 1.04 GiBDuration : 1h 45mnOverall bit rate : 1 414 KbpsWriting library : MPlayer

VideoID : 0Format : MPEG-4 VisualFormat profile : Advanced Simple@L5Format settings, BVOP : 2Format settings, QPel : NoFormat settings, GMC : No warppointsFormat settings, Matrix : Default (H.263)Codec ID : XVIDCodec ID/Hint : XviDDuration : 1h 45mnBit rate : 1 249 KbpsWidth : 640 pixelsHeight : 480 pixelsDisplay aspect ratio : 4:3Frame rate : 25.000 fpsColor space : YUVChroma subsampling : 4:2:0Bit depth : 8 bitsScan type : ProgressiveCompression mode : LossyBits/(Pixel*Frame) : 0.163Stream size : 942 MiB (88%)Writing library : XviD 1.1.2 (UTC 2006-11-01)

AudioID : 1Format : MPEG AudioFormat version : Version 1Format profile : Layer 3Mode : Joint stereoMode extension : MS StereoCodec ID : 55Codec ID/Hint : MP3Duration : 1h 45mnBit rate mode : ConstantBit rate : 160 KbpsChannel(s) : 2 channelsSampling rate : 44.1 KHzCompression mode : LossyDelay relative to video : 40msStream size : 121 MiB (11%)Alignment : Split accross interleavesInterleave, duration : 500 ms (12.50 video frames)Interleave, preload duration : 500 msWriting library : LAME3.98.2


Трекер:  [ 19-Сен-2013 21:53 ]

  

Скачать .torrent

Размер .torrent файла 21 KB


Размер: 1.04 GB
Хэш (hash) релиза: b071bdf866a4155e013365f97db49b0935cc98ba

Еще никто не оставлял запись к записи скачать торрент Fetisch: Samenschlampe Фетиш: Семена сука . Будь первым!

!Обратная связь