Kup teraz w ebookpoint.pl | (2016) DVDRip Now More Than Ever: The Hi.. | Harry Potter And The Order Of The Phoenix

Скачать порно через торрент [Downloaddreams.com] UnionPeer.org бесплатно онлайн HD качество

Скачать новое порно 2015, 2014 новинки через торрент UnionPeer.org

Порно торрент бесплатно ЮнионПир.орг

Статистика раздачи
Размер:  4.09 GB   |    Зарегистрирован:  5 лет 1 месяц   |    .torrent скачан:  380 раз   |   
Раздают:  1  
   
загрузка...
 
Автор Сообщение

LinGr

avatar LinGr


[Downloaddreams.com] Girls in Mud / Барышни возятся в грязи

Охваченный временной промежуток: 2007-2010
Страна: USA
Жанр: mud, sinking, stuck, fetish

Тип ПАКа: В ПАКе меньше 15 роликов (MiniPack)
Количество роликов: 8

Описание: Девочки так или иначе пытаются влезть по глубже в грязь
General
Complete name                            : D:\toren\downloaddreams\Blondes in Trouble 2.wmv
Format                                   : Windows Media
File size                                : 946 MiB
Duration                                 : 18mn 30s
Overall bit rate mode                    : Variable
Overall bit rate                         : 7 144 Kbps
Maximum Overall bit rate                 : 10.1 Mbps
Encoded date                             : UTC 2009-11-05 02:44:05.300

Video
ID                                       : 2
Format                                   : VC-1
Format profile                           : [email protected]
Codec ID                                 : WMV3
Codec ID/Info                            : Windows Media Video 9
Codec ID/Hint                            : WMV3
Description of the codec                 : Windows Media Video 9 - Professional
Duration                                 : 18mn 30s
Bit rate mode                            : Variable
Bit rate                                 : 7 000 Kbps
Width                                    : 1 280 pixels
Height                                   : 720 pixels
Display aspect ratio                     : 16:9
Frame rate                               : 25.000 fps
Bit depth                                : 8 bits
Scan type                                : Progressive
Compression mode                         : Lossy
Bits/(Pixel*Frame)                       : 0.304
Stream size                              : 927 MiB (98%)
NumberOfFrames                           : 27750

Audio
ID                                       : 1
Format                                   : WMA
Format version                           : Version 2
Codec ID                                 : 161
Codec ID/Info                            : Windows Media Audio
Description of the codec                 : Windows Media Audio 9.2 - 128 kbps, 48 kHz, stereo 2-pass VBR
Duration                                 : 18mn 30s
Bit rate mode                            : Variable
Bit rate                                 : 128 Kbps
Channel(s)                               : 2 channels
Sampling rate                            : 48.0 KHz
Bit depth                                : 16 bits
Stream size                              : 16.9 MiB (2%)
General
Complete name                            : D:\toren\downloaddreams\Desperate in Mud.wmv
Format                                   : Windows Media
File size                                : 138 MiB
Duration                                 : 11mn 25s
Overall bit rate mode                    : Variable
Overall bit rate                         : 1 696 Kbps
Maximum Overall bit rate                 : 8 269 Kbps
Performer                                : downloaddreams.com
Encoded date                             : UTC 2006-12-25 07:20:58.140
Copyright                                : (c) 2007 downloaddreams.com

Video
ID                                       : 2
Format                                   : VC-1
Format profile                           : [email protected]
Codec ID                                 : WMV3
Codec ID/Info                            : Windows Media Video 9
Codec ID/Hint                            : WMV3
Description of the codec                 : Windows Media Video 9 - Professional
Duration                                 : 11mn 25s
Bit rate mode                            : Variable
Bit rate                                 : 1 554 Kbps
Width                                    : 640 pixels
Height                                   : 480 pixels
Display aspect ratio                     : 4:3
Frame rate                               : 25.000 fps
Bit depth                                : 8 bits
Scan type                                : Progressive
Compression mode                         : Lossy
Bits/(Pixel*Frame)                       : 0.202
Stream size                              : 127 MiB (92%)

Audio
ID                                       : 1
Format                                   : WMA
Format version                           : Version 2
Codec ID                                 : 161
Codec ID/Info                            : Windows Media Audio
Description of the codec                 : Windows Media Audio 9.1 -  96 kbps, 44 kHz, stereo 2-pass VBR
Duration                                 : 11mn 25s
Bit rate mode                            : Variable
Bit rate                                 : 96.0 Kbps
Channel(s)                               : 2 channels
Sampling rate                            : 44.1 KHz
Bit depth                                : 16 bits
Stream size                              : 7.84 MiB (6%)
General
Complete name                            : D:\toren\downloaddreams\Fun in Mud.wmv
Format                                   : Windows Media
File size                                : 767 MiB
Duration                                 : 15mn 0s
Overall bit rate mode                    : Variable
Overall bit rate                         : 7 143 Kbps
Maximum Overall bit rate                 : 10.1 Mbps
Encoded date                             : UTC 2008-12-30 23:06:14.700

Video
ID                                       : 2
Format                                   : VC-1
Format profile                           : [email protected]
Codec ID                                 : WMV3
Codec ID/Info                            : Windows Media Video 9
Codec ID/Hint                            : WMV3
Description of the codec                 : Windows Media Video 9 - Professional
Duration                                 : 15mn 0s
Bit rate mode                            : Variable
Bit rate                                 : 7 000 Kbps
Width                                    : 1 280 pixels
Height                                   : 720 pixels
Display aspect ratio                     : 16:9
Frame rate                               : 29.970 fps
Bit depth                                : 8 bits
Scan type                                : Progressive
Compression mode                         : Lossy
Bits/(Pixel*Frame)                       : 0.253
Stream size                              : 751 MiB (98%)
NumberOfFrames                           : 26974

Audio
ID                                       : 1
Format                                   : WMA
Format version                           : Version 2
Codec ID                                 : 161
Codec ID/Info                            : Windows Media Audio
Description of the codec                 : Windows Media Audio 9.2 - 128 kbps, 48 kHz, stereo 2-pass VBR
Duration                                 : 15mn 0s
Bit rate mode                            : Variable
Bit rate                                 : 128 Kbps
Channel(s)                               : 2 channels
Sampling rate                            : 48.0 KHz
Bit depth                                : 16 bits
Stream size                              : 13.7 MiB (2%)
General
Complete name                            : D:\toren\downloaddreams\Mud Bath.wmv
Format                                   : Windows Media
File size                                : 214 MiB
Duration                                 : 18mn 0s
Overall bit rate mode                    : Variable
Overall bit rate                         : 1 662 Kbps
Maximum Overall bit rate                 : 1 726 Kbps
Performer                                : downloaddreams.com
Encoded date                             : UTC 2008-09-26 21:47:41.453
Copyright                                : (c) 2008 downloaddreams.com

Video
ID                                       : 2
Format                                   : VC-1
Format profile                           : [email protected]
Codec ID                                 : WMV3
Codec ID/Info                            : Windows Media Video 9
Codec ID/Hint                            : WMV3
Description of the codec                 : Windows Media Video 9 - Professional
Duration                                 : 18mn 0s
Bit rate mode                            : Variable
Bit rate                                 : 1 554 Kbps
Width                                    : 640 pixels
Height                                   : 480 pixels
Display aspect ratio                     : 4:3
Frame rate                               : 25.000 fps
Bit depth                                : 8 bits
Scan type                                : Progressive
Compression mode                         : Lossy
Bits/(Pixel*Frame)                       : 0.202
Stream size                              : 200 MiB (93%)

Audio
ID                                       : 1
Format                                   : WMA
Format version                           : Version 2
Codec ID                                 : 161
Codec ID/Info                            : Windows Media Audio
Description of the codec                 : Windows Media Audio 9.2 -  96 kbps, 44 kHz, stereo 2-pass VBR
Duration                                 : 18mn 0s
Bit rate mode                            : Variable
Bit rate                                 : 96.1 Kbps
Channel(s)                               : 2 channels
Sampling rate                            : 44.1 KHz
Bit depth                                : 16 bits
Stream size                              : 12.4 MiB (6%)
General
Complete name                            : D:\toren\downloaddreams\Mud Soccer.wmv
Format                                   : Windows Media
File size                                : 232 MiB
Duration                                 : 19mn 30s
Overall bit rate mode                    : Variable
Overall bit rate                         : 1 663 Kbps
Maximum Overall bit rate                 : 2 127 Kbps
Performer                                : (c) 2008 Downloaddreams.com
Encoded date                             : UTC 2008-06-14 02:11:22.531
Copyright                                : 2008 Downloaddreams.com

Video
ID                                       : 2
Format                                   : VC-1
Format profile                           : [email protected]
Codec ID                                 : WMV3
Codec ID/Info                            : Windows Media Video 9
Codec ID/Hint                            : WMV3
Description of the codec                 : Windows Media Video 9 - Professional
Duration                                 : 19mn 30s
Bit rate mode                            : Variable
Bit rate                                 : 1 554 Kbps
Width                                    : 640 pixels
Height                                   : 480 pixels
Display aspect ratio                     : 4:3
Frame rate                               : 25.000 fps
Bit depth                                : 8 bits
Scan type                                : Progressive
Compression mode                         : Lossy
Bits/(Pixel*Frame)                       : 0.202
Stream size                              : 217 MiB (93%)
Language                                 : German

Audio
ID                                       : 1
Format                                   : WMA
Format version                           : Version 2
Codec ID                                 : 161
Codec ID/Info                            : Windows Media Audio
Description of the codec                 : Windows Media Audio 9.2 -  96 kbps, 44 kHz, stereo 2-pass VBR
Duration                                 : 19mn 30s
Bit rate mode                            : Variable
Bit rate                                 : 96.0 Kbps
Channel(s)                               : 2 channels
Sampling rate                            : 44.1 KHz
Bit depth                                : 16 bits
Stream size                              : 13.4 MiB (6%)
Language                                 : English
General
Complete name                            : D:\toren\downloaddreams\Muddy Jeans.wmv
Format                                   : Windows Media
File size                                : 295 MiB
Duration                                 : 24mn 20s
Overall bit rate mode                    : Variable
Overall bit rate                         : 1 696 Kbps
Maximum Overall bit rate                 : 3 103 Kbps
Performer                                : downloaddreams.com
Encoded date                             : UTC 2007-07-25 23:20:38.781
Copyright                                : (c) 2007 downloaddreams.com

Video
ID                                       : 2
Format                                   : VC-1
Format profile                           : [email protected]
Codec ID                                 : WMV3
Codec ID/Info                            : Windows Media Video 9
Codec ID/Hint                            : WMV3
Description of the codec                 : Windows Media Video 9 - Professional
Duration                                 : 24mn 20s
Bit rate mode                            : Variable
Bit rate                                 : 1 554 Kbps
Width                                    : 640 pixels
Height                                   : 480 pixels
Display aspect ratio                     : 4:3
Frame rate                               : 25.000 fps
Bit depth                                : 8 bits
Scan type                                : Progressive
Compression mode                         : Lossy
Bits/(Pixel*Frame)                       : 0.202
Stream size                              : 270 MiB (92%)

Audio
ID                                       : 1
Format                                   : WMA
Format version                           : Version 2
Codec ID                                 : 161
Codec ID/Info                            : Windows Media Audio
Description of the codec                 : Windows Media Audio 9.1 -  96 kbps, 44 kHz, stereo 2-pass VBR
Duration                                 : 24mn 20s
Bit rate mode                            : Variable
Bit rate                                 : 96.1 Kbps
Channel(s)                               : 2 channels
Sampling rate                            : 44.1 KHz
Bit depth                                : 16 bits
Stream size                              : 16.7 MiB (6%)
General
Complete name                            : D:\toren\downloaddreams\Red, Hot & Muddy.wmv
Format                                   : Windows Media
File size                                : 733 MiB
Duration                                 : 14mn 20s
Overall bit rate mode                    : Variable
Overall bit rate                         : 7 145 Kbps
Maximum Overall bit rate                 : 10.0 Mbps
Encoded date                             : UTC 2009-04-23 21:46:09.100

Video
ID                                       : 2
Format                                   : VC-1
Format profile                           : [email protected]
Codec ID                                 : WMV3
Codec ID/Info                            : Windows Media Video 9
Codec ID/Hint                            : WMV3
Description of the codec                 : Windows Media Video 9 - Professional
Duration                                 : 14mn 20s
Bit rate mode                            : Variable
Bit rate                                 : 7 000 Kbps
Width                                    : 1 280 pixels
Height                                   : 720 pixels
Display aspect ratio                     : 16:9
Frame rate                               : 25.000 fps
Bit depth                                : 8 bits
Scan type                                : Progressive
Compression mode                         : Lossy
Bits/(Pixel*Frame)                       : 0.304
Stream size                              : 718 MiB (98%)
NumberOfFrames                           : 21500

Audio
ID                                       : 1
Format                                   : WMA
Format version                           : Version 2
Codec ID                                 : 161
Codec ID/Info                            : Windows Media Audio
Description of the codec                 : Windows Media Audio 9.2 - 128 kbps, 48 kHz, stereo 2-pass CBR
Duration                                 : 14mn 20s
Bit rate mode                            : Constant
Bit rate                                 : 128 Kbps
Channel(s)                               : 2 channels
Sampling rate                            : 48.0 KHz
Bit depth                                : 16 bits
Stream size                              : 13.1 MiB (2%)
General
Complete name                            : D:\toren\downloaddreams\Stuck in Mud 2.wmv
Format                                   : Windows Media
File size                                : 856 MiB
Duration                                 : 16mn 45s
Overall bit rate mode                    : Variable
Overall bit rate                         : 7 143 Kbps
Maximum Overall bit rate                 : 10.1 Mbps
Encoded date                             : UTC 2010-01-03 08:53:31.800

Video
ID                                       : 2
Format                                   : VC-1
Format profile                           : [email protected]
Codec ID                                 : WMV3
Codec ID/Info                            : Windows Media Video 9
Codec ID/Hint                            : WMV3
Description of the codec                 : Windows Media Video 9 - Professional
Duration                                 : 16mn 45s
Bit rate mode                            : Variable
Bit rate                                 : 7 000 Kbps
Width                                    : 1 280 pixels
Height                                   : 720 pixels
Display aspect ratio                     : 16:9
Frame rate                               : 25.000 fps
Bit depth                                : 8 bits
Scan type                                : Progressive
Compression mode                         : Lossy
Bits/(Pixel*Frame)                       : 0.304
Stream size                              : 839 MiB (98%)
NumberOfFrames                           : 25125

Audio
ID                                       : 1
Format                                   : WMA
Format version                           : Version 2
Codec ID                                 : 161
Codec ID/Info                            : Windows Media Audio
Description of the codec                 : Windows Media Audio 9.2 - 128 kbps, 48 kHz, stereo 2-pass VBR
Duration                                 : 16mn 45s
Bit rate mode                            : Variable
Bit rate                                 : 128 Kbps
Channel(s)                               : 2 channels
Sampling rate                            : 48.0 KHz
Bit depth                                : 16 bits
Stream size                              : 15.4 MiB (2%)


Трекер:  [ 13-Июн-2013 17:33 ]

  

Скачать .torrent

Размер .torrent файла 11 KB


Размер: 4.09 GB
Хэш (hash) релиза: 251031041c822bc03678ef244635bf68265793db

Торренты, похожие на [Downloaddreams.com] скачать торрент

Форум Название Автор Размер S L Добавлен
Фетиш ·· [Downloaddreams.com] Schoolgirl Wetlook / Школьница в промокшей одежде [wet-0078] [2011 г., wet, fetish, 720p, SiteRip] Galfimbul 749832973715 MB 0 0 1371459367

11:56

17-Июн-13

Еще никто не оставлял запись к записи скачать торрент [Downloaddreams.com] . Будь первым!

!Обратная связь