Más detalles | Watch Episode | Best Match 3 Games

Скачать через торрент Призраки прошлого Фильм бесплатно в хорошем качестве torrent

Скачивайте на UnionPeer.org фильмы через торрент без регистрации. Новинки кино в хорошем качестве через торрент. На UnionPeer.org можно скачать через торрент фильмы 2014 и 2015 годов. Самые новые фильмы.

Скачать торрент Призраки прошлого бесплатно через .torrent фильм мультфильм сериал

Статистика раздачи
Размер:  745 MB   |    Зарегистрирован:  13 дней   |    .torrent скачан:  93 раза   |   
Раздают:  1  
   
загрузка...
 
Автор Сообщение

Galfimbul

avatar Galfimbul


Призраки прошлого



[b]Год выхода:
2018
Жанр: Мелодрама
Режиссер: Екатерина Двигубская
В ролях: Алла Юганова, Александр Пашков, Илья Бледный, Татьяна Храмова, Людмила Акулинина, Томас Моцкус, Вероника Волоха, Григорий Гандлевский, Светлана Корчагина, Анна Перелешина, Николай Рыков

О фильме: Лена Махотина до недавнего времени считала себя счастливой женщиной. У нее любящий муж Слава и маленькая дочка Соня. Лена работает парикмахером и больше всего любит устраивать чужую личную жизнь. Но вдруг одна из ее одиноких клиенток рассказывает ей о своем новом бурном романе и показывает фотографию своего избранника, на которой Лена узнает собственного мужа...


Страна: Россия
Студия: "Калейдоскоп фильм", "Грифон"
Продолжительность: 01:29:29
Перевод: Не требуется
Субтитры: Нет

Файл
Кодек: XviD
Качество: HDTVRip
Видео: 656x368 (1.78:1), 25 fps, XviD build 73 ~1025 kbps avg, 0.17 bit/pixel
Звук: 48 kHz, MPEG Layer 3, 2 ch, ~128.00 kbps avg
General
Complete name : Prizraki.Proshlogo.2018.HDTVRip.ot.Portablius.avi
Format : AVI
Format/Info : Audio Video Interleave
File size : 745 MiB
Duration : 1 h 29 min
Overall bit rate : 1 164 kb/s
Writing application : VirtualDubMod 1.5.10.3 | www.virtualdub-fr.org || (build 2550/release)
Writing library : VirtualDubMod build 2550/release

Video
ID : 0
Format : MPEG-4 Visual
Format profile : Advanced [email protected]
Format settings, BVOP : 1
Format settings, QPel : No
Format settings, GMC : No warppoints
Format settings, Matrix : Custom
Codec ID : XVID
Codec ID/Hint : XviD
Duration : 1 h 29 min
Bit rate : 1 026 kb/s
Width : 656 pixels
Height : 368 pixels
Display aspect ratio : 16:9
Frame rate : 25.000 FPS
Color space : YUV
Chroma subsampling : 4:2:0
Bit depth : 8 bits
Scan type : Progressive
Compression mode : Lossy
Bits/(Pixel*Frame) : 0.170
Stream size : 657 MiB (88%)
Writing library : XviD 73

Audio
ID : 1
Format : MPEG Audio
Format version : Version 1
Format profile : Layer 3
Codec ID : 55
Codec ID/Hint : MP3
Duration : 1 h 29 min
Bit rate mode : Constant
Bit rate : 128 kb/s
Channel(s) : 2 channels
Sampling rate : 48.0 kHz
Compression mode : Lossy
Stream size : 81.9 MiB (11%)
Alignment : Aligned on interleaves
Interleave, duration : 40 ms (1.00 video frame)
Interleave, preload duratio : 504 ms
Writing library : LAME3.99r
Encoding settings : -m s -V 4 -q 2 -lowpass 17 -b 128
Источник http://BlaTor.org

Трекер:  [ 08-Окт-2018 11:30 ]

  

Скачать .torrent

Размер .torrent файла 15 KB


Размер: 745 MB
Хэш (hash) релиза: 5b3c2ceaa255d2ea5b6929763307c355602404f5
Подписка на обновления:

Торренты, похожие на Призраки прошлого скачать торрент

Форум Название Автор Размер S L Добавлен
Российские фильмы 2016-2018 (Новинки русского кино) ·%· Призраки прошлого (2018) HDTVRip-AVC от Files-x Galfimbul 14685785081.37 GB 0 0 1538864518

01:21

7-Окт-18

Зарубежные фильмы до 2016 ·· Призраки прошлого / Abandoned Dead (Марк В. Каррен) [2015, ужасы, триллер, криминал, WEBRip] Galfimbul 11218011421.04 GB 0 0 1457203553

21:45

5-Мар-16

Зарубежные фильмы до 2016 ·· Призраки в Коннектикуте 2: Тени прошлого / The Haunting in Connecticut 2: Ghosts of Georgia (Том Элкинс / Tom Elkins) [2013, США, Ужасы, триллер, драма, детектив, DVD9] R5 Dub + Sub Rus + Original Eng Galfimbul 79887011847.44 GB 0 0 1525806146

22:02

8-Май-18

Зарубежные фильмы до 2016 ·· Призраки в Коннектикуте 2: Тени прошлого / The Haunting in Connecticut 2: Ghosts of Georgia (Том Элкинс / Tom Elkins) [2013 г., США, ужасы, триллер, драма, HDRip-AVC] Dub + Original (Eng) + Sub (Rus, Eng) Galfimbul 23397084672.18 GB 0 0 1429627966

17:52

21-Апр-15

Зарубежные фильмы до 2016 ·· Призраки в Коннектикуте 2: Тени прошлого / The Haunting in Connecticut 2: Ghosts of Georgia (Том Элкинс / Tom Elkins) [2013 г., США, ужасы, триллер, драма, HDRip-AVC] Dub + Sub (Rus, Eng) Galfimbul 15687315001.46 GB 0 0 1429561215

23:20

20-Апр-15

Зарубежные фильмы до 2016 ·· Призраки в Коннектикуте 2: Тени прошлого / The Haunting in Connecticut 2: Ghosts of Georgia (Том Элкинс / Tom Elkins) [2013, США, ужасы, триллер, драма, HDRip] Dub [Line] Galfimbul 734369792700 MB 0 0 1410697840

15:30

14-Сен-14

Зарубежные фильмы до 2016 ·· Призраки в Коннектикуте 2: Тени прошлого / The Haunting in Connecticut 2: Ghosts of Georgia (Том Элкинс / Tom Elkins) [2013, США, ужасы, триллер, драма, HDRip] Чистый звук Galfimbul 15677235201.46 GB 0 0 1403294608

23:03

20-Июн-14

Зарубежные фильмы до 2016 ·· Призраки в Коннектикуте 2: Тени прошлого / The Haunting in Connecticut 2: Ghosts of Georgia (Том Элкинс / Tom Elkins) [2013, США, ужасы, триллер, драма, BDRip 1080p] DVO (den904 & DeadSno) + VO (А. Дасевич) + Original Eng + Sub (Rus, Eng) Galfimbul 1127321051810.5 GB 0 0 1366900716

17:38

25-Апр-13

Зарубежные фильмы до 2016 ·· Призраки в Коннектикуте 2: Тени прошлого / The Haunting in Connecticut 2: Ghosts of Georgia (Том Элкинс) [2013, ужасы, триллер, драма, BDRemux] Galfimbul 2077378236819.35 GB 0 0 1366889218

14:26

25-Апр-13

Зарубежные фильмы до 2016 ·· Призраки в Коннектикуте 2: Тени прошлого / The Haunting in Connecticut 2: Ghosts of Georgia (Том Элкинс / Tom Elkins) [2013, США, ужасы, триллер, драма, BDRip 720p] DVO (den904, DeadSno) + Original Eng Galfimbul 49607814994.62 GB 0 0 1365541438

00:03

10-Апр-13

Зарубежные фильмы до 2016 ·· Призраки в Коннектикуте 2: Тени прошлого / The Haunting in Connecticut 2: Ghosts of Georgia (Том Элкинс / Tom Elkins) [2013, США, ужасы, триллер, драма, HDRip] DVO ([den904, DeadSno]) Galfimbul 15690711041.46 GB 0 0 1362335796

21:36

3-Мар-13

Зарубежные фильмы до 2016 ·· Призраки в Коннектикуте 2: Тени прошлого / The Haunting in Connecticut 2: Ghosts of Georgia (Том Элкинс) [2013, ужасы, триллер, драма, WEB-DL 720p] Galfimbul 32738771213.05 GB 0 0 1360593512

17:38

11-Фев-13

Еще никто не оставлял запись к записи скачать торрент Призраки прошлого . Будь первым!

!Обратная связь