2018 Idol Star Athletics Championships - Chuseok Special | Killing Eve | download

Скачать через торрент Мама навсегда Фильм бесплатно в хорошем качестве torrent

Скачивайте на UnionPeer.org фильмы через торрент без регистрации. Новинки кино в хорошем качестве через торрент. На UnionPeer.org можно скачать через торрент фильмы 2014 и 2015 годов. Самые новые фильмы.

Скачать торрент Мама навсегда бесплатно через .torrent фильм мультфильм сериал

Статистика раздачи
Размер:  2.9 GB   |    Зарегистрирован:  2 месяца 1 день   |    .torrent скачан:  280 раз   |   
Раздают:  1  
   
загрузка...
 
Автор Сообщение

Galfimbul

avatar Galfimbul


Мама навсегда

Страна: Россия
Производство: Take & Shot
Год выпуска: 2018
Жанр: драма
Продолжительность: 01:18:15

Режиссеры: Евгений Никитин, Александр Королев, Кирилл Плетнёв
Авторы сценария: Евгений Никитин, Александр Королев, Гарик Сукачев

В ролях: Хельга Филиппова, Наталья Хохлова, Юрий Анпилогов, Оксана Голубева, Михаил Горевой, Светлана Ходченкова, Ольга Сирина, Ольга Лапшина

Описание: В альманах вошли короткометражные фильмы, поднимающие важные для каждого из нас темы — семьи, любви, счастья...


Перевод: не требуется (оригинал)
Субтитры: нет
Качество: WEB-DL 1080р
Формат: МКV
Видео кодек: AVC
Аудио кодек: АС3
Видео: 1920x1080 (16:9), 24.000 fps, MPEG-4 AVC ~5 013 kbps avg
Аудио: 48.0 kHz, AC3 Dolby Digital, 2/0 (L,R) ch, ~192 kbps

Дата премьеры (мир): 13 апреля 2018



<span style="color:Green;">
General
General
Unique ID : 199912805972387726668612758233949669902 (0x9665CE515ABA3FC5BC644D72A9740A0E)
Complete name : Mama.navsegda.2018.WEB-DL.(1080p).Getty.mkv
Format : Matroska
Format version : Version 4 / Version 2
File size : 2.90 GiB
Duration : 1h 18mn
Overall bit rate : 5 310 Kbps
Movie name : Mama.navsegda.2018.WEB-DL.(1080p).Getty
Encoded date : UTC 2018-08-19 11:53:35
Writing application : mkvmerge v7.8.0 ('River Man') 32bit built on Mar 27 2015 16:18:02
Writing library : libebml v1.3.1 + libmatroska v1.4.2
DURATION : 01:18:15.040000000
NUMBER_OF_FRAMES : 146720
NUMBER_OF_BYTES : 112680960
_STATISTICS_WRITING_APP : mkvmerge v7.8.0 ('River Man') 32bit built on Mar 27 2015 16:18:02
_STATISTICS_WRITING_DATE_UTC : 2018-08-19 11:53:35
_STATISTICS_TAGS : BPS DURATION NUMBER_OF_FRAMES NUMBER_OF_BYTES

Video
ID : 1
Format : AVC
Format/Info : Advanced Video Codec
Format profile : [email protected]
Format settings, CABAC : Yes
Format settings, ReFrames : 4 frames
Codec ID : V_MPEG4/ISO/AVC
Duration : 1h 18mn
Bit rate : 5 013 Kbps
Width : 1 920 pixels
Height : 1 080 pixels
Display aspect ratio : 16:9
Frame rate mode : Constant
Frame rate : 24.000 fps
Color space : YUV
Chroma subsampling : 4:2:0
Bit depth : 8 bits
Scan type : Progressive
Bits/(Pixel*Frame) : 0.101
Stream size : 2.74 GiB (94%)
Default : Yes
Forced : No

Audio
ID : 2
Format : AC-3
Format/Info : Audio Coding 3
Mode extension : CM (complete main)
Format settings, Endianness : Big
Codec ID : A_AC3
Duration : 1h 18mn
Bit rate mode : Constant
Bit rate : 192 Kbps
Channel(s) : 2 channels
Channel positions : Front: L R
Sampling rate : 48.0 KHz
Compression mode : Lossy
Stream size : 107 MiB (4%)
Default : Yes
Forced : No
Источник http://BlaTor.org

Трекер:  [ 20-Авг-2018 09:10 ]

  

Скачать .torrent

Размер .torrent файла 15 KB


Размер: 2.9 GB
Хэш (hash) релиза: 5802b153ae42475e44308c96d763241f3754e267
Подписка на обновления:

Еще никто не оставлял запись к записи скачать торрент Мама навсегда . Будь первым!

!Обратная связь