5/?? Tập Rerided: Tokigoe No Derrida

Đạo diễn: 2018
| Fortitude | Watch now!

Скачать через торрент Студия Нижний Фильм бесплатно в хорошем качестве torrent

Скачивайте на UnionPeer.org фильмы через торрент без регистрации. Новинки кино в хорошем качестве через торрент. На UnionPeer.org можно скачать через торрент фильмы 2014 и 2015 годов. Самые новые фильмы.

Скачать торрент Студия Нижний бесплатно через .torrent фильм мультфильм сериал

Статистика раздачи
Размер:  4.34 GB   |    Зарегистрирован:  2 месяца 28 дней   |    .torrent скачан:  66 раз   |   
Раздают:  1  
   
загрузка...
 
Автор Сообщение

Galfimbul

avatar Galfimbul


Студия Нижний



[b]Год выхода:
2017
Жанр: Мелодрама
Режиссер: Евгений Кудельников
В ролях: Иван Пилявский, Марина Замыслова, Полина Самойлова, Максим Новиков (II), Олег Тактаров, Сергей Чиграков, Владимир Кристовский, Сергей Кристовский

О фильме: История жизни и любви талантливого фотографа Никиты Пирогова. Действие картины разворачивается в настоящем, прошлом и будущем Нижнего Новгорода. Фильм наполнен музыкой, творчеством, городскими достопримечательностями и нижегородскими историями.


Страна: Россия
Студия: Кинокомпания Живая Вода
Продолжительность: 01:57:07
Перевод: Не требуется

Файл
Кодек: MPEG-4 AVC
Качество: WEB-DL 1080p
Видео: 1920x804, 5112kb/s, 25.000fps
Звук: 192kb/s, 2ch, 48000kHz, AC3 [RUS] | Русский язык
Субтитры: Отсутствуют

РЕКЛАМА ОТСУТСТВУЕТ
Формат : Matroska
Версия формата : Version 4 / Version 2
Размер файла : 4,34 Гбайт
Продолжительность : 1 ч. 57 м.
Общий поток : 5306 Кбит/сек
Название фильма : Studiya.nizhniy.2017.WEB-DL.(1080p).Getty
Дата кодирования : UTC 2018-07-19 14:26:52
Программа кодирования : mkvmerge v7.8.0 ('River Man') 32bit built on Mar 27 2015 16:18:02
Библиотека кодирования : libebml v1.3.1 + libmatroska v1.4.2

Видео
Идентификатор : 1
Формат : AVC
Формат/Информация : Advanced Video Codec
Профиль формата : [email protected]
Настройки формата : CABAC / 4 Ref Frames
Параметр CABAC формата : Да
Параметр RefFrames формата : 4 кадра
Идентификатор кодека : V_MPEG4/ISO/AVC
Продолжительность : 1 ч. 57 м.
Битрейт : 5112 Кбит/сек
Ширина : 1920 пикселей
Высота : 804 пикселя
Соотношение сторон : 2,40:1
Режим частоты кадров : Постоянный
Частота кадров : 25,000 кадров/сек
Цветовое пространство : YUV
Субдискретизация насыщенности : 4:2:0
Битовая глубина : 8 бит
Тип развёртки : Прогрессивная
Бит/(Пиксели*Кадры) : 0.132
Размер потока : 4,18 Гбайт (96%)
Default : Да
Forced : Нет

Аудио
Идентификатор : 2
Формат : AC-3
Формат/Информация : Audio Coding 3
Идентификатор кодека : A_AC3
Продолжительность : 1 ч. 57 м.
Вид битрейта : Постоянный
Битрейт : 192 Кбит/сек
Каналы : 2 канала
Расположение каналов : Front: L R
Частота : 48,0 КГц
Частота кадров : 31,250 кадров/сек (1536 SPF)
Битовая глубина : 16 бит
Метод сжатия : С потерями
Размер потока : 161 Мбайт (4%)
Default : Да
Forced : Нет
Источник http://BlaTor.org

Трекер:  [ 24-Июл-2018 10:40 ]

  

Скачать .torrent

Размер .torrent файла 22 KB


Размер: 4.34 GB
Хэш (hash) релиза: e73cc4a850ee6d02b309e64222067c0557e63e3f
Подписка на обновления:

Еще никто не оставлял запись к записи скачать торрент Студия Нижний . Будь первым!

!Обратная связь