Suicide Squad: Hell to Pay (2018) | Lauv - I Like Me Better | Uninhibited Rivalry204

Скачать через торрент Я счастлив Фильм бесплатно в хорошем качестве torrent

Скачивайте на UnionPeer.org фильмы через торрент без регистрации. Новинки кино в хорошем качестве через торрент. На UnionPeer.org можно скачать через торрент фильмы 2014 и 2015 годов. Самые новые фильмы.

Скачать торрент Я счастлив бесплатно через .torrent фильм мультфильм сериал

Статистика раздачи
Размер:  2.93 GB   |    Зарегистрирован:  2 месяца 28 дней   |    .torrent скачан:  83 раза   |   
Раздают:  1  
   
загрузка...
 
Автор Сообщение

Galfimbul

avatar Galfimbul


Я счастлив



[b]Год выхода:
2018
Жанр: Драма
Режиссер: Евгений Дакот
В ролях: Евгений Дакот, Наталья Анисимова, Александра Верхошанская, Владимир Селезнёв

О фильме: Однажды, проснувшись в парке на траве, ты услышишь слово «Привет!» от незнакомки, и твоя жизнь перевернется. Блестящее будущее пианиста покажется скучным, умная заботливая девушка — слишком правильной. А девизом новой жизни станет «К черту запреты!».


Страна: Россия
Студия: Dakot Vision
Продолжительность: 01:18:57
Перевод: Не требуется

Файл
Кодек: MPEG-4 AVC
Качество: WEB-DL 1080p
Видео: 1920x824, 5113kb/s, 24.000fps
Звук: 192kb/s, 2ch, 48000kHz, AC3 [RUS] | Русский язык
Субтитры: Отсутствуют

РЕКЛАМА ОТСУТСТВУЕТ
Формат : Matroska
Версия формата : Version 4 / Version 2
Размер файла : 2,93 Гбайт
Продолжительность : 1 ч. 18 м.
Общий поток : 5306 Кбит/сек
Название фильма : Ya.schastliv.2018.WEB-DL.(1080p).Getty
Дата кодирования : UTC 2018-07-18 11:31:05
Программа кодирования : mkvmerge v7.8.0 ('River Man') 32bit built on Mar 27 2015 16:18:02
Библиотека кодирования : libebml v1.3.1 + libmatroska v1.4.2

Видео
Идентификатор : 1
Формат : AVC
Формат/Информация : Advanced Video Codec
Профиль формата : [email protected]
Настройки формата : CABAC / 4 Ref Frames
Параметр CABAC формата : Да
Параметр RefFrames формата : 4 кадра
Идентификатор кодека : V_MPEG4/ISO/AVC
Продолжительность : 1 ч. 18 м.
Битрейт : 5113 Кбит/сек
Ширина : 1920 пикселей
Высота : 824 пикселя
Соотношение сторон : 2,35:1
Режим частоты кадров : Постоянный
Частота кадров : 24,000 кадра/сек
Цветовое пространство : YUV
Субдискретизация насыщенности : 4:2:0
Битовая глубина : 8 бит
Тип развёртки : Прогрессивная
Бит/(Пиксели*Кадры) : 0.135
Размер потока : 2,82 Гбайт (96%)
Default : Да
Forced : Нет

Аудио
Идентификатор : 2
Формат : AC-3
Формат/Информация : Audio Coding 3
Идентификатор кодека : A_AC3
Продолжительность : 1 ч. 18 м.
Вид битрейта : Постоянный
Битрейт : 192 Кбит/сек
Каналы : 2 канала
Расположение каналов : Front: L R
Частота : 48,0 КГц
Частота кадров : 31,250 кадров/сек (1536 SPF)
Битовая глубина : 16 бит
Метод сжатия : С потерями
Размер потока : 108 Мбайт (4%)
Default : Да
Forced : Нет
Источник http://BlaTor.org

Трекер:  [ 24-Июл-2018 06:00 ]

  

Скачать .torrent

Размер .torrent файла 15 KB


Размер: 2.93 GB
Хэш (hash) релиза: e61a91e9a39a46c51d28a457d1844a58ddc8dc77
Подписка на обновления:

Торренты, похожие на Я счастлив скачать торрент

Форум Название Автор Размер S L Добавлен
Российские фильмы 2016-2018 (Новинки русского кино) ·%· Я счастлив (2018) WEB-DLRip-AVC от Files-x Galfimbul 14672777891.37 GB 0 0 1532348460

15:21

23-Июл-18

Российские фильмы до 2016 ·%· Я счастлив (Евгений Дакот) [2018, драма, WEB-DLRip] Galfimbul 14588026881.36 GB 0 0 1531972448

06:54

19-Июл-18

Российские фильмы 2016-2018 (Новинки русского кино) ·%· Я счастлив (2018) WEB-DLRip от GeneralFilm Galfimbul 780589056744 MB 0 0 1531954822

02:00

19-Июл-18

Российские фильмы 2016-2018 (Новинки русского кино) ·%· Я счастлив (2018) WEB-DLRip от Files-x Galfimbul 10663055361017 MB 0 0 1531940446

22:00

18-Июл-18

Еще никто не оставлял запись к записи скачать торрент Я счастлив . Будь первым!

!Обратная связь