Eachtra’s Vocal Ambi | 脱皮爸爸 Shed Skin Papa 2018 1080p WEB-DL x264-BTxiaba 24 minutes | Arturo: El Millonario Seductor

Скачать через торрент Фото на память Фильм бесплатно в хорошем качестве torrent

Скачивайте на UnionPeer.org фильмы через торрент без регистрации. Новинки кино в хорошем качестве через торрент. На UnionPeer.org можно скачать через торрент фильмы 2014 и 2015 годов. Самые новые фильмы.

Скачать торрент Фото на память бесплатно через .torrent фильм мультфильм сериал

Статистика раздачи
Размер:  1.46 GB   |    Зарегистрирован:  2 месяца 30 дней   |    .torrent скачан:  96 раз   |   
Раздают:  1  
   
загрузка...
 
Автор Сообщение

Galfimbul

avatar Galfimbul


Фото на память
«Приготовьтесь! Сейчас вылетит смерть...»


Год выпуска: 2018
Страна: Россия
Производство: Big Cinema House
Жанр: Триллер, ужасы

Режиссёр: Антон Зенкович
В ролях: Ирина Темичева, Степан Юрпалов, Анастасия Уколова, Санжар Мади, Гарик Петросян, Егор Харламов, Софья Зайка

Перевод: Не требуется | iTunes
Субтитры: Нет
Реклама: Отсутствует

Описание: Неожиданная авария заставляет компанию молодых людей свернуть в старый дом, где, к своему удивлению, среди множества жутких фотографий, они находят снимок их разбитого автомобиля. К тому же в одной из комнат обнаруживается старинный фотоаппарат, на который возможно и сделаны страшные снимки. Молодые люди оказываются втянуты в несущую смерть, кровавую карусель... Убивает ли фотоаппарат? Случайны ли происходящие с ними события? Всё это предстоит выяснить оказавшимся в безвыходной ситуации героям.



Качество: WEB-DLRip (AVC)
Продолжительность: 01:13:41

Формат: MKV
Видео кодек: MPEG-4 AVC
Аудио кодек: AC3
Видео: 1024x428 (2.40:1), 24,000 fps, x264 ~2 450 kbps avg, 0.233 bit/pixel
Аудио: 48 kHz, AC3 Dolby Digital, 3/2 (L,C,R,l,r) + LFE ch, ~384.00 kbps avg | RUS (iTunes)

Дата премьеры (РФ): 14 июня 2018, «Каропрокат»
Дата премьеры (мир): 22 июня 2018
Общее
Уникальный идентификатор : 132305204132412422515808152919231782689 (0x63890E318EBA46AEFF98220ED0ED5F21)
Полное имя : F:OlLanDGroupFoto.Na.Pamjat.2018.WEB-DLRip(AVC).OlLanDGroup.mkv
Формат : Matroska
Версия формата : Version 4 / Version 2
Размер файла : 1,46 Гбайт
Продолжительность : 1 ч. 13 м.
Общий поток : 2835 Кбит/сек
Название фильма : Foto..Na.Pamjat.2018 #TorpedoUK#
Дата кодирования : UTC 2018-07-22 09:37:12
Программа кодирования : mkvmerge v25.0.0 ('Prog Noir') 64-bit
Библиотека кодирования : libebml v1.3.6 + libmatroska v1.4.9

Видео
Идентификатор : 1
Формат : AVC
Формат/Информация : Advanced Video Codec
Профиль формата : [email protected]
Параметр CABAC формата : Да
Параметр ReFrames формата : 10 кадров
Идентификатор кодека : V_MPEG4/ISO/AVC
Продолжительность : 1 ч. 13 м.
Битрейт : 2450 Кбит/сек
Ширина : 1024 пикселя
Высота : 428 пикселей
Соотношение сторон : 2,40:1
Режим частоты кадров : Постоянный
Частота кадров : 24,000 кадра/сек
Цветовое пространство : YUV
Субдискретизация насыщенности : 4:2:0
Битовая глубина : 8 бит
Тип развёртки : Прогрессивная
Бит/(Пиксели*Кадры) : 0.233
Размер потока : 1,26 Гбайт (86%)
Библиотека кодирования : x264 core 146 r2538 121396c
Настройки программы : cabac=1 / ref=10 / deblock=1:-2:-3 / analyse=0x3:0x113 / me=umh / subme=11 / psy=1 / psy_rd=0.97:0.07 / mixed_ref=1 / me_range=48 / chroma_me=1 / trellis=2 / 8x8dct=1 / cqm=0 / deadzone=21,11 / fast_pskip=1 / chroma_qp_offset=-3 / threads=6 / lookahead_threads=1 / sliced_threads=0 / nr=0 / decimate=1 / interlaced=0 / bluray_compat=0 / constrained_intra=0 / bframes=10 / b_pyramid=2 / b_adapt=2 / b_bias=0 / direct=3 / weightb=1 / open_gop=0 / weightp=2 / keyint=240 / keyint_min=24 / scenecut=40 / intra_refresh=0 / rc_lookahead=40 / rc=2pass / mbtree=1 / bitrate=2450 / ratetol=1.0 / qcomp=0.60 / qpmin=0 / qpmax=69 / qpstep=4 / cplxblur=20.0 / qblur=0.5 / vbv_maxrate=50000 / vbv_bufsize=62500 / nal_hrd=none / filler=0 / ip_ratio=1.40 / aq=1:1.00
Default : Да
Forced : Нет

Аудио
Идентификатор : 2
Формат : AC-3
Формат/Информация : Audio Coding 3
Расширение режима : CM (complete main)
Параметр Endianness формата : Big
Идентификатор кодека : A_AC3
Продолжительность : 1 ч. 13 м.
Вид битрейта : Постоянный
Битрейт : 384 Кбит/сек
Каналы : 6 каналов
Расположение каналов : Front: L C R, Side: L R, LFE
Частота : 48,0 КГц
Частота кадров : 31,250 кадров/сек (1536 spf)
Битовая глубина : 16 бит
Метод сжатия : С потерями
Размер потока : 202 Мбайт (14%)
Заголовок : iTunes
Язык : Russian
Default : Да
Forced : Нет

Меню
00:00:00.000 : en:Глава 1
00:06:41.666 : en:Глава 2
00:12:22.499 : en:Глава 3
00:17:54.832 : en:Глава 4
00:23:53.248 : en:Глава 5
00:30:54.873 : en:Глава 6
00:35:29.748 : en:Глава 7
00:40:30.123 : en:Глава 8
00:45:46.581 : en:Глава 9
00:50:56.247 : en:Глава 10
00:56:29.913 : en:Глава 11
01:01:13.163 : en:Глава 12
Источник http://BlaTor.org

Трекер:  [ 22-Июл-2018 13:00 ]

  

Скачать .torrent

Размер .torrent файла 15 KB


Размер: 1.46 GB
Хэш (hash) релиза: 413b26aac537babc19e18af474c2176145004161
Подписка на обновления:

Торренты, похожие на Фото на память скачать торрент

Форум Название Автор Размер S L Добавлен
Российские фильмы 2016-2018 (Новинки русского кино) ·%· Фото на память (2018) WEB-DLRip от Generalfilm | КПК | iTunes Galfimbul 293693777280 MB 0 0 1532270467

17:41

22-Июл-18

Российские фильмы 2016-2018 (Новинки русского кино) ·%· Фото на память (2018) WEB-DLRip-AVC от ExKinoRay Galfimbul 782101673746 MB 0 0 1532023811

21:10

19-Июл-18

Российские фильмы до 2016 ·%· Фото на память (Антон Зенкович) [2018, Россия, триллер, ужасы, WEB-DL 1080p] Original Rus Galfimbul 27393966612.55 GB 0 0 1531944080

23:01

18-Июл-18

Российские фильмы до 2016 ·%· Фото на память (Антон Зенкович) [2018, триллер, ужасы, WEB-DLRip] Galfimbul 14562959361.36 GB 0 0 1531934648

20:24

18-Июл-18

Российские фильмы 2016-2018 (Новинки русского кино) ·%· Фото на память (2018) WEB-DLRip от GeneralFilm | iTunes Galfimbul 779694080744 MB 0 0 1531933238

20:00

18-Июл-18

Российские фильмы 2016-2018 (Новинки русского кино) ·%· Фото на память (2018) WEB-DLRip | iTunes Galfimbul 14319080321.33 GB 0 0 1531926064

18:01

18-Июл-18

Российские фильмы 2016-2018 (Новинки русского кино) ·%· Фото на память (2018) WEB-DL 1080p | iTunes Galfimbul 27393966612.55 GB 0 0 1531926052

18:00

18-Июл-18

Российские фильмы до 2016 ·· Фото на недобрую память (Алина Чеботарёва) [2016, криминальный фильм, мелодрама, SATRip] Galfimbul 14697062401.37 GB 0 0 1474038493

18:08

16-Сен-16

Еще никто не оставлял запись к записи скачать торрент Фото на память . Будь первым!

!Обратная связь