Mutant63 | Love Addict FRENCH DVDRIP 2018 | Más detalles

Скачать через торрент Я худею Фильм бесплатно в хорошем качестве torrent

Скачивайте на UnionPeer.org фильмы через торрент без регистрации. Новинки кино в хорошем качестве через торрент. На UnionPeer.org можно скачать через торрент фильмы 2014 и 2015 годов. Самые новые фильмы.

Скачать торрент Я худею бесплатно через .torrent фильм мультфильм сериал

Статистика раздачи
Размер:  744 MB   |    Зарегистрирован:  2 месяца 30 дней   |    .torrent скачан:  69 раз   |   
Раздают:  1  
   
загрузка...
 
Автор Сообщение

Galfimbul

avatar Galfimbul


Я худею
«Хорош себя стесняться!»


Год выпуска: 2018
Страна: Россия
Производство: Vice Films
Жанр: Комедия

Режиссёр: Алексей Нужный
В ролях: Александра Бортич, Ирина Горбачёва, Сергей Шнуров, Евгений Кулик (II), Роман Курцын, Александр Пташенчук, Елена Валюшкина, Валерия Дергилева, Андрей Трушин

Перевод: Не требуется | Лицензия
Субтитры: Нет
Реклама: Отсутствует

Описание: В жизни Ани есть две главные любви - её парень Женя и еда. Из-за еды они и расстаются: Жене совсем не нравится, как Аня стала выглядеть. Аня не готова просто сдаться. При поддержке лучшей подруги и увлечённого здоровым образом жизни добряка Коли она пускается в увлекательное приключение, чтобы похудеть и обрести любовь и счастье.



Качество: BDRip-AVC | BDRemux | Ja.Hudeju.2018.BDRemux.(1080p).OlLanDGroup
Продолжительность: 01:36:51

Формат: MKV
Видео кодек: MPEG-4 AVC
Аудио кодек: AC3
Видео: 720x322 (2.25:1), 24,000 fps, x264 ~942 kbps avg, 0.169 bit/pixel
Аудио: 48 kHz, HE-AAC / LC, 2 (L,R) ch, ~72.00 kbps avg | RUS (Лицензия)

Дата премьеры (РФ): 8 марта 2018, «UPI»
Дата премьеры (мир): 23 марта 2018
Общее
Уникальный идентификатор : 3165751259458885440863639618392806556 (0x261B39677C5B83EA7E0E10F1141D49C)
Полное имя : F:OlLanDGroupJa.Hudeju.2018.BDRip(AVC).OlLanDGroup.mkv
Формат : Matroska
Версия формата : Version 4 / Version 2
Размер файла : 744 Мбайт
Продолжительность : 1 ч. 42 м.
Общий поток : 1012 Кбит/сек
Название фильма : Ja.Hudeju.2018 #TorpedoUK#
Дата кодирования : UTC 2018-07-22 00:38:45
Программа кодирования : mkvmerge v25.0.0 ('Prog Noir') 64-bit
Библиотека кодирования : libebml v1.3.6 + libmatroska v1.4.9
Обложка : Yes
Attachments : Cover - Ja.Hudeju.png

Видео
Идентификатор : 1
Формат : AVC
Формат/Информация : Advanced Video Codec
Профиль формата : [email protected]
Параметр CABAC формата : Да
Параметр ReFrames формата : 10 кадров
Идентификатор кодека : V_MPEG4/ISO/AVC
Продолжительность : 1 ч. 42 м.
Битрейт : 942 Кбит/сек
Ширина : 720 пикселей
Высота : 322 пикселя
Соотношение сторон : 2,25:1
Режим частоты кадров : Постоянный
Частота кадров : 24,000 кадра/сек
Цветовое пространство : YUV
Субдискретизация насыщенности : 4:2:0
Битовая глубина : 8 бит
Тип развёртки : Прогрессивная
Бит/(Пиксели*Кадры) : 0.169
Размер потока : 689 Мбайт (93%)
Библиотека кодирования : x264 core 146 r2538 121396c
Настройки программы : cabac=1 / ref=10 / deblock=1:-3:-3 / analyse=0x3:0x113 / me=umh / subme=11 / psy=1 / psy_rd=0.99:0.04 / mixed_ref=1 / me_range=48 / chroma_me=1 / trellis=2 / 8x8dct=1 / cqm=0 / deadzone=21,11 / fast_pskip=1 / chroma_qp_offset=-3 / threads=6 / lookahead_threads=1 / sliced_threads=0 / nr=0 / decimate=1 / interlaced=0 / bluray_compat=0 / constrained_intra=0 / bframes=10 / b_pyramid=2 / b_adapt=2 / b_bias=0 / direct=3 / weightb=1 / open_gop=0 / weightp=2 / keyint=240 / keyint_min=24 / scenecut=40 / intra_refresh=0 / rc_lookahead=40 / rc=2pass / mbtree=1 / bitrate=942 / ratetol=1.0 / qcomp=0.60 / qpmin=0 / qpmax=69 / qpstep=4 / cplxblur=20.0 / qblur=0.5 / vbv_maxrate=50000 / vbv_bufsize=62500 / nal_hrd=none / filler=0 / ip_ratio=1.40 / aq=1:1.00
Default : Да
Forced : Нет

Аудио
Идентификатор : 2
Формат : AAC
Формат/Информация : Advanced Audio Codec
Профиль формата : HE-AAC / LC
Идентификатор кодека : A_AAC
Продолжительность : 1 ч. 42 м.
Битрейт : 72,0 Кбит/сек
Каналы : 2 канала
Расположение каналов : Front: L R
Частота : 48,0 КГц / 24,0 КГц
Частота кадров : 23,438 кадра/сек (1024 spf)
Метод сжатия : С потерями
Задержка видео : 31 мс.
Размер потока : 52,9 Мбайт (7%)
Заголовок : License
Язык : Russian
Default : Да
Forced : Нет

Меню
00:00:00.000 : ru:Chapter 01
00:01:17.333 : ru:Chapter 02
00:12:28.125 : ru:Chapter 03
00:23:17.083 : ru:Chapter 04
00:31:58.791 : ru:Chapter 05
00:45:29.125 : ru:Chapter 06
00:56:08.125 : ru:Chapter 07
01:10:30.666 : ru:Chapter 08
01:26:25.708 : ru:Chapter 09
Источник http://BlaTor.org

Трекер:  [ 22-Июл-2018 04:20 ]

  

Скачать .torrent

Размер .torrent файла 15 KB


Размер: 744 MB
Хэш (hash) релиза: ef8c74dca7c743d56a59aecbbfe7036cc9ae8e97
Подписка на обновления:

Торренты, похожие на Я худею скачать торрент

Форум Название Автор Размер S L Добавлен
Российские фильмы до 2016 ·%· Я худею (Алексей Нужный) [2018, Россия, комедия, BDRip 720p] Original Rus Galfimbul 45032868104.19 GB 0 0 1532174529

15:02

21-Июл-18

Российские фильмы 2016-2018 (Новинки русского кино) ·%· Я худею (2018) BDRip 720p от HELLYWOOD | Лицензия Galfimbul 46876831414.37 GB 0 0 1532145615

07:00

21-Июл-18

Российские фильмы 2016-2018 (Новинки русского кино) ·%· Я худею (2018) BDRip от ExKinoRay | Лицензия Galfimbul 15683635841.46 GB 0 0 1532091031

15:50

20-Июл-18

Российские фильмы 2016-2018 (Новинки русского кино) ·%· Я худею (2018) BDRip от MegaPeer | Лицензия Galfimbul 15685529601.46 GB 0 0 1532038215

01:10

20-Июл-18

Российские фильмы 2016-2018 (Новинки русского кино) ·%· Я худею (2018) BDRemux 1080p от OlLanDGroup | Лицензия Galfimbul 2374481376322.11 GB 0 0 1532034062

00:01

20-Июл-18

Российские фильмы 2016-2018 (Новинки русского кино) ·%· Я худею (2018) Blu-ray 1080p | Лицензия Galfimbul 2497230070123.26 GB 0 0 1532032815

23:40

19-Июл-18

Российские фильмы 2016-2018 (Новинки русского кино) ·%· Я худею (2018) BDRip | Лицензия Galfimbul 15694262981.46 GB 0 0 1531560641

12:30

14-Июл-18

Российские фильмы 2016-2018 (Новинки русского кино) ·%· Я худею (2018) BDRip-AVC | Лицензия Galfimbul 23391205402.18 GB 0 0 1531560631

12:30

14-Июл-18

Российские фильмы 2016-2018 (Новинки русского кино) ·%· Я худею (2018) BDRip 720p | Лицензия Galfimbul 58778920135.47 GB 0 0 1531560621

12:30

14-Июл-18

Российские фильмы 2016-2018 (Новинки русского кино) ·%· Я худею (2018) BDRip 1080p | Лицензия Galfimbul 93504210198.71 GB 0 0 1531560611

12:30

14-Июл-18

Российские фильмы до 2016 ·· Я худею (Алексей Нужный) [2018, комедия, WEB-DLRip] Galfimbul 780314624744 MB 0 0 1524979453

08:24

29-Апр-18

Российские фильмы 2016-2018 (Новинки русского кино) ·· Я худею (Алексей Нужный) [2018, комедия, WEB-DLRip-AVC] iTunes Galfimbul 781653986745 MB 0 0 1524777626

00:20

27-Апр-18

Российские фильмы до 2016 ·· Я худею (Алексей Нужный) [2018, комедия, WEB-DLRip-AVC] Galfimbul 15981848291.49 GB 0 0 1524743663

14:54

26-Апр-18

Российские фильмы до 2016 ·· Я худею (Алексей Нужный) [2018, Россия, комедия, WEB-DL 1080p] Original Rus Galfimbul 36880322023.43 GB 0 0 1524724244

09:30

26-Апр-18

Российские фильмы до 2016 ·· Я худею (Алексей Нужный) [2018, комедия, WEB-DLRip] Galfimbul 15640555521.46 GB 0 0 1524713056

06:24

26-Апр-18

Российские фильмы 2016-2018 (Новинки русского кино) ·· Я худею (Алексей Нужный) [2018 г., Комедия, WEB-DLRip] iTunes Galfimbul 14684610561.37 GB 0 0 1524688329

23:32

25-Апр-18

Российские фильмы 2016-2018 (Новинки русского кино) ·· Я худею (Алексей Нужный) [2018 г., Комедия, WEB-DL 1080p] iTunes Galfimbul 36880322023.43 GB 0 0 1524688317

23:31

25-Апр-18

Документальные фильмы и телепередачи ·· Профессия - репортер. Я худею, дорогая редакция! Эфир от 14.07.2012 [2012, Документальный, SATRip] Galfimbul 295200756282 MB 0 0 1497053773

03:16

10-Июн-17

Еще никто не оставлял запись к записи скачать торрент Я худею . Будь первым!

!Обратная связь