Gratuit8 | Homeland Security | Icelandic

Скачать через торрент Прощаться не будем Фильм бесплатно в хорошем качестве torrent

Скачивайте на UnionPeer.org фильмы через торрент без регистрации. Новинки кино в хорошем качестве через торрент. На UnionPeer.org можно скачать через торрент фильмы 2014 и 2015 годов. Самые новые фильмы.

Скачать торрент Прощаться не будем бесплатно через .torrent фильм мультфильм сериал

Статистика раздачи
Размер:  1.46 GB   |    Зарегистрирован:  3 месяца 1 день   |    .torrent скачан:  134 раза   |   
Раздают:  1  
   
загрузка...
 
Автор Сообщение

Galfimbul

avatar Galfimbul


Прощаться не будем



[b]Год выхода:
2018
Жанр: Военный, драма, история
Страна: Россия
Перевод: Не требуется
Продолжительность: 01:55:21
Режиссер: Павел Дроздов
В ролях: Андрей Мерзликин, Алена Чехова, Артур Ваха, Анатолий Гущин, Егор Бероев, Юрий Кузнецов, Дагун Омаев, Сергей Горобченко, Родион Долгирев, Анна Чурина и др.

О фильме: Октябрь сорок первого года. Многотысячное немецкое войско наступает на Калинин (ныне Тверь), чтобы, захватив его, открыть себе прямой путь на Москву. На защите города всего две тысячи человек без танков и артиллерии. Единственная надежда задержать врага — эшелоны пятой стрелковой дивизии, которые вот-вот должны пройти через Калининскую станцию. Но диверсанты намерены сделать все, чтобы этого не случилось. Начальник Калининского гарнизона, майор Павел Сысоев, изо всех сил пытаясь сохранить в городе порядок и спокойствие, сам попадает под подозрение в причастности к вражеской диверсионной группе.



Файл
Формат: AVI
Качество: WEB-DLRip
Видео: Xvid, 720x304, ~1420 kbps, 24,000 fps
Звук: русский, AC3 5.1, 48 kHz, 384 kbps
Субтитры: нет
General
Полное имя : F:TorrentProshchatsyaNeBudem.avi
Формат : AVI
Формат/Информация : Audio Video Interleave
Профиль формата : OpenDML
Размер файла : 1.46 GiB
Продолжительность : 1 h 55 min
Общий поток : 1 816 kb/s
Программа кодирования : XviD4PSP 6.0 / 54.27.101

Video
Идентификатор : 0
Формат : MPEG-4 Visual
Профиль формата : Advanced [email protected]
Настройки формата : BVOP2 / Custom Matrix
Параметр BVOP формата : 2
Параметр QPel формата : No
Параметр GMC формата : No warppoints
Параметр матрицы формата : Custom
Идентификатор кодека : XVID
Идентификатор кодека/Подсказка : XviD
Продолжительность : 1 h 55 min
Битрейт : 1 420 kb/s
Ширина : 720 pixels
Высота : 304 pixels
Соотношение сторон : 2.35:1
Частота кадров : 24.000 FPS
Цветовое пространство : YUV
Субдискретизация насыщенности : 4:2:0
Битовая глубина : 8 bits
Тип развёртки : Progressive
Метод сжатия : Lossy
Бит/(Пиксели*Кадры) : 0.270
Размер потока : 1.14 GiB (78%)
Библиотека кодирования : XviD 67

Audio
Идентификатор : 1
Формат : AC-3
Формат/Информация : Audio Coding 3
Идентификатор кодека : 2000
Продолжительность : 1 h 55 min
Вид битрейта : Constant
Битрейт : 384 kb/s
Каналы : 6 channels
Расположение каналов : Front: L C R, Side: L R, LFE
Частота : 48.0 kHz
Частота кадров : 31.250 FPS (1536 SPF)
Битовая глубина : 16 bits
Метод сжатия : Lossy
Размер потока : 317 MiB (21%)
Выравнивание : Aligned on interleaves
Продолжительность промежутка : 32 ms (0.77 video frame)
Источник http://BlaTor.org

Трекер:  [ 20-Июл-2018 16:30 ]

  

Скачать .torrent

Размер .torrent файла 15 KB


Размер: 1.46 GB
Хэш (hash) релиза: db70b3510e85091be3899e22873d8953745d5efe
Подписка на обновления:

Торренты, похожие на Прощаться не будем скачать торрент

Форум Название Автор Размер S L Добавлен
Российские фильмы 2016-2018 (Новинки русского кино) ·%· Прощаться не будем (2018) WEB-DLRip-AVC от ExKinoRay | iTunes Galfimbul 781261167745 MB 0 0 1532580046

07:40

26-Июл-18

Российские фильмы 2016-2018 (Новинки русского кино) ·%· Прощаться не будем (2018) WEB-DLRip от Generalfilm | КПК | iTunes Galfimbul 459539471438 MB 0 0 1532162435

11:40

21-Июл-18

Российские фильмы 2016-2018 (Новинки русского кино) ·%· Прощаться не будем (2018) WEB-DLRip (AVC) от OlLanDGroup | iTunes Galfimbul 15674722461.46 GB 0 0 1532149235

08:00

21-Июл-18

Российские фильмы 2016-2018 (Новинки русского кино) ·%· Прощаться не будем (2018) WEB-DLRip от GeneralFilm | iTunes Galfimbul 782880768747 MB 0 0 1532109020

20:50

20-Июл-18

Российские фильмы до 2016 ·%· Прощаться не будем (Павел Дроздов) [2018, Россия, военный, драма, история, WEB-DL 1080p] Original Rus Galfimbul 42916095394 GB 0 0 1532107840

20:30

20-Июл-18

Российские фильмы до 2016 ·%· Прощаться не будем (Павел Дроздов) [2018, военный, драма, история, WEB-DLRip] Galfimbul 15687249921.46 GB 0 0 1532096657

17:24

20-Июл-18

Российские фильмы 2016-2018 (Новинки русского кино) ·%· Прощаться не будем (2018) WEB-DL 1080p | iTunes Galfimbul 42916095394 GB 0 0 1532093424

16:30

20-Июл-18

Еще никто не оставлял запись к записи скачать торрент Прощаться не будем . Будь первым!

!Обратная связь