One Piece Chapter 751: | GIBZ Base Defence-SiMPLEX | THE OTHER SHORE

Скачать через торрент Тум-паби-дум Тум Паби Дум Фильм бесплатно в хорошем качестве torrent

Скачивайте на UnionPeer.org фильмы через торрент без регистрации. Новинки кино в хорошем качестве через торрент. На UnionPeer.org можно скачать через торрент фильмы 2014 и 2015 годов. Самые новые фильмы.

Скачать торрент Тум-паби-дум Тум Паби Дум бесплатно через .torrent фильм мультфильм сериал

Статистика раздачи
Размер:  1.68 GB   |    Зарегистрирован:  3 месяца 2 дня   |    .torrent скачан:  149 раз   |   
Раздают:  1  
   
загрузка...
 
Автор Сообщение

Galfimbul

avatar Galfimbul


Тум-паби-дум / Тум Паби Дум



[b]Год выхода:
2017
Жанр: детский фильм, семейное кино
Режиссер: Вячеслав Никифоров
В ролях: Артём Венгерович, Даша Киреева, Валерия Арланова, Павел Южаков-Харланчук, Ольга Клебанович, Алексей Шедько, Сергей Чекерес, Денис Барановский, Виолетта Руднева, Владимир Денисов, Юрий Дормидонтов, Сергей Шахов

О фильме:
Воспитанник детского дома Санёк решает найти родителей для себя и своей подопечной Алеси. Мальчик вынужден играть по взрослым законам, что ставит его перед серьезным нравственным выбором.

Доп. информация:
Сценаристы: Дмитрий Михлеев, Вячеслав Никифоров
Оператор: Павел Зубрицкий
Художник: Дмитрий Мохов
Производство: Беларусьфильм
Премьера: 25 января 2018 (Беларусь)



Запись потока *.ts с наземного цифрового телеканала "Беларусь 3".

Благодарность: за помощь с недостающим материалом Bartimeyse и PavelDAS. Обоим большое спасибо!

Страна: Республика Беларусь
Студия: Беларусьфильм
Продолжительность: 01:34:40
Перевод: не требует

Файл
Кодек: AVC (H264)
Качество: DVB
Видео: MPEG4 Video (H264) 720(785)x576 (20:11) 25fps, 2 161 kb/s
Звук: MPEG Audio 48000Hz stereo 256kbps

Семпл
 
General
ID : 1 (0x1)
Complete name : D:Новая земля 2Художественные фильмыТум-паби-дум (2017)Тум-паби-дум (2017).ts
Format : MPEG-TS
File size : 1.68 GiB
Duration : 1 h 34 min
Overall bit rate mode : Variable
Overall bit rate : 2 545 kb/s

Video
ID : 801 (0x321)
Menu ID : 1 (0x1)
Format : AVC
Format/Info : Advanced Video Codec
Format profile : [email protected]
Format settings : CABAC / 4 Ref Frames
Format settings, CABAC : Yes
Format settings, ReFrames : 4 frames
Format settings, GOP : M=3, N=24
Codec ID : 27
Duration : 1 h 34 min
Bit rate : 2 161 kb/s
Width : 720 pixels
Height : 576 pixels
Display aspect ratio : 16:9
Frame rate : 25.000 FPS
Standard : PAL
Color space : YUV
Chroma subsampling : 4:2:0
Bit depth : 8 bits
Scan type : MBAFF
Scan type, store method : Interleaved fields
Scan order : Top Field First
Bits/(Pixel*Frame) : 0.208
Stream size : 1.43 GiB (85%)
Color range : Limited

Audio
ID : 802 (0x322)
Menu ID : 1 (0x1)
Format : MPEG Audio
Format version : Version 1
Format profile : Layer 2
Codec ID : 3
Duration : 1 h 34 min
Bit rate mode : Constant
Bit rate : 256 kb/s
Channel(s) : 2 channels
Sampling rate : 48.0 kHz
Frame rate : 41.667 FPS (1152 SPF)
Compression mode : Lossy
Stream size : 173 MiB (10%)
Language : English
Источник http://BlaTor.org

Трекер:  [ 19-Июл-2018 22:20 ]

  

Скачать .torrent

Размер .torrent файла 17 KB


Размер: 1.68 GB
Хэш (hash) релиза: 16500e1da3746b920fc2b58c085b960498fea07c
Подписка на обновления:

Торренты, похожие на Тум-паби-дум Тум Паби Дум скачать торрент

Форум Название Автор Размер S L Добавлен
Зарубежные фильмы 2016-2018 (Новинки зарубежного кино) ·%· Тум-Паби-Дум / Тум Паби Дум (2017) SATRip от ExKinoRay Galfimbul 782041088746 MB 0 0 1532438413

16:20

24-Июл-18

Еще никто не оставлял запись к записи скачать торрент Тум-паби-дум Тум Паби Дум . Будь первым!

!Обратная связь