823 Telecharger A Hologram for the King Gratuit A Hologram for the King is a 2016 American comedy-drama film directed and written by Tom Tykwer, based on the 2012 novel... | Scott Menville | Donald Wrye

Скачать через торрент Строгий Выговор Фильм бесплатно в хорошем качестве torrent

Скачивайте на UnionPeer.org фильмы через торрент без регистрации. Новинки кино в хорошем качестве через торрент. На UnionPeer.org можно скачать через торрент фильмы 2014 и 2015 годов. Самые новые фильмы.

Скачать торрент Строгий Выговор бесплатно через .torrent фильм мультфильм сериал

Статистика раздачи
Размер:  171 MB   |    Зарегистрирован:  3 месяца 3 дня   |    .torrent скачан:  40 раз   |   
Раздают:  1  
   
загрузка...
 
Автор Сообщение

Galfimbul

avatar Galfimbul


Строгий Выговор



[b]Год выхода:
2016
Жанр: Короткометражка, драма
Режиссер: Сергей Целиков
В ролях: Владиcлав Кузнецов, Александр Городиский, Борис Полушев, Владимир Брынько, Владимир Василатов, Алексей Дронов, Владимир Ануфриев, Николай Постнов, Олег Кабаргин, Михаил Бакурский, Игорь Пименов, Юрий Фомин, Павел Кальдин, Юлия Кобец, Дмитрий Авдеенко, Юрий Морозов

О фильме: Морская академия. Отличник Саша Цаплин постигает азы морского ремесла, которое кроется где-то между мытьем полов и мечтами о прохождении летней практики на греческом судне. Рутину учебной недели нарушает появление его мамы с тортиком в руках. Курсанты узнают, что у Саши сегодня день рождения. Саша нацелен на чаепитие, но его друзья настаивают на покупке спиртного. Курсанты Лобанов и Морозов, у которых больше выговоров, чем пятерок, уговаривают Цаплина на авантюру. Однако ее ждет совершенно неожиданный исход. В результате под угрозой не только будущее курсантов, но и их дружба.


Страна: Россия
Студия: "Лето"
Продолжительность: 00:20:09
Перевод: Не требуется
Субтитры: нет

Файл
Кодек: XviD
Качество: WEBRip
Видео: 704x384 (1.83:1), 25 fps, XviD build 73 ~1046 kbps avg, 0.16 bit/pixel
Звук: 48 kHz, MPEG Layer 3, 2 ch, ~128.00 kbps avg
General
Complete name : Strogii.Vygovor.2016.WEBRip.ot.Portablius.avi
Format : AVI
Format/Info : Audio Video Interleave
File size : 171 MiB
Duration : 20 min 9 s
Overall bit rate : 1 185 kb/s
Writing application : VirtualDubMod 1.5.10.3 | www.virtualdub-fr.org || (build 2550/release)
Writing library : VirtualDubMod build 2550/release

Video
ID : 0
Format : MPEG-4 Visual
Format profile : Advanced [email protected]
Format settings, BVOP : 1
Format settings, QPel : No
Format settings, GMC : No warppoints
Format settings, Matrix : Custom
Codec ID : XVID
Codec ID/Hint : XviD
Duration : 20 min 9 s
Bit rate : 1 047 kb/s
Width : 704 pixels
Height : 384 pixels
Display aspect ratio : 1.85:1
Frame rate : 25.000 FPS
Color space : YUV
Chroma subsampling : 4:2:0
Bit depth : 8 bits
Scan type : Progressive
Compression mode : Lossy
Bits/(Pixel*Frame) : 0.155
Stream size : 151 MiB (88%)
Writing library : XviD 73

Audio
ID : 1
Format : MPEG Audio
Format version : Version 1
Format profile : Layer 3
Codec ID : 55
Codec ID/Hint : MP3
Duration : 20 min 9 s
Bit rate mode : Constant
Bit rate : 128 kb/s
Channel(s) : 2 channels
Sampling rate : 48.0 kHz
Compression mode : Lossy
Stream size : 18.5 MiB (11%)
Alignment : Aligned on interleaves
Interleave, duration : 40 ms (1.00 video frame)
Interleave, preload duratio : 504 ms
Writing library : LAME3.99r
Encoding settings : -m s -V 4 -q 2 -lowpass 17 -b 128
Источник http://BlaTor.org

Трекер:  [ 18-Июл-2018 17:40 ]

  

Скачать .torrent

Размер .torrent файла 14 KB


Размер: 171 MB
Хэш (hash) релиза: 08c708a55b288f354b6cbba722fbb01e019964fb
Подписка на обновления:

Торренты, похожие на Строгий Выговор скачать торрент

Форум Название Автор Размер S L Добавлен
Российские фильмы 2016-2018 (Новинки русского кино) ·· Строгий Выговор (Сергей Целиков) [2016, Короткометражка, драма, WEBRip 1080p] Galfimbul 26373413142.46 GB 0 0 1515696044

21:40

11-Янв-18

Еще никто не оставлял запись к записи скачать торрент Строгий Выговор . Будь первым!

!Обратная связь