Contattaci | Movie Trailer Ben Mendelsohn | DVD4963 Digital Juice Swipes 22 Pyro Techniques Part1 DVD9-TSG

Скачать через торрент Знакомство с Факерами Meet the Fockers Фильм бесплатно в хорошем качестве torrent

Скачивайте на UnionPeer.org фильмы через торрент без регистрации. Новинки кино в хорошем качестве через торрент. На UnionPeer.org можно скачать через торрент фильмы 2014 и 2015 годов. Самые новые фильмы.

Скачать торрент Знакомство с Факерами Meet the Fockers бесплатно через .torrent фильм мультфильм сериал

Статистика раздачи
Размер:  2.14 GB   |    Зарегистрирован:  1 месяц   |    .torrent скачан:  21 раз   |   
Раздают:  1  
   
загрузка...
 
Автор Сообщение

Galfimbul

avatar Galfimbul


Знакомство с Факерами / Meet the Fockers

«Семья не приходит одна»

Страна: США
Жанр: Комедия
Год выпуска: 2004
Продолжительность: 01:55:15

Перевод: Авторский (одноголосый закадровый) Сергей Визгунов
Перевод 2: Профессиональный (многоголосый закадровый) Так треба продакшн украинский
Субтитры: нет
Оригинальная аудиодорожка: английский

Режиссер: Джей Роуч / Jay Roach

В ролях: Роберт Де Ниро, Бен Стиллер, Дастин Хоффман, Барбра Стрейзанд, Блайт Даннер, Тери Поло, Аланна Юбак, Рэй Сантьяго, Шелли Берман, Оуэн Уилсон

Описание: Дав разрешение санитару Грэгу Факеру на свадьбу с их дочерью, бывший ЦэРэУшник Джек Бернс и его жена отправляются в Майами к родителям жениха. У них в голове много вопросов. Что это за семейка такая — Факеры? И что это вообще за родители, которые назвали сына Гей (Гейлард) М.Факер?

Доп. информация: Дорожка с С. Визгуновым синхронизирована и наложена ale_x2008 при помощи Sony Vegas и VirtualDubMod.

За оцифрованную с VHS дорожку благодарим - d_rocker

Релиз

Сэмпл: http://yadi.sk/i/fx-ZbLmo3ZH7d5

Качество видео: BDRip
Формат видео: AVI

Видео: XviD build 63, 704x384 (1.83:1), 23.976 fps, 1800 kbps avg, 0.28 bit/pixel
Аудио: AC3 Dolby Digital, 48000Hz 2/0 (L,R) ch (mono), 192 kbps avg AVO
Аудио 2: AC3 Dolby Digital, 48000Hz 2/0 (L,R) ch, 192 kbps avg UKR - Hurtom
Аудио 3: 48 kHz, AC3 Dolby Digital, 3/2 (L,C,R,l,r) + LFE ch, ~384.00 kbps avg ENG
Знакомство с Факерами - Meet the Fockers [by ale_x2008].aviFormat : AVIFormat/Info : Audio Video InterleaveFormat profile : OpenDMLFile size : 2.14 GiBDuration : 1 h 55 minOverall bit rate : 2 657 kb/sMovie name : Знакомство с Факерами / Meet the Fockers (2004) BDRipDirector : by ale_X2008Genre : Comedy/RomanceWriting application : VirtualDubMod 1.5.10.2 (build 2540/release)Copyright : Edich2Comment : Rutracker.org

VideoID : 0Format : MPEG-4 VisualFormat profile : Advanced [email protected] settings : BVOP1 / Custom MatrixFormat settings, BVOP : 1Format settings, QPel : NoFormat settings, GMC : No warppointsFormat settings, Matrix : CustomCodec ID : XVIDCodec ID/Hint : XviDDuration : 1 h 55 minBit rate : 1 800 kb/sWidth : 704 pixelsHeight : 384 pixelsDisplay aspect ratio : 1.85:1Frame rate : 23.976 (24000/1001) FPSColor space : YUVChroma subsampling : 4:2:0Bit depth : 8 bitsScan type : ProgressiveCompression mode : LossyBits/(Pixel*Frame) : 0.278Stream size : 1.45 GiB (68%)Writing library : XviD 63

Audio #1ID : 1Format : AC-3Format/Info : Audio Coding 3Codec ID : 2000Duration : 1 h 55 minBit rate mode : ConstantBit rate : 192 kb/sChannel(s) : 2 channelsChannel positions : Front: L RSampling rate : 48.0 kHzFrame rate : 31.250 FPS (1536 SPF)Bit depth : 16 bitsCompression mode : LossyStream size : 158 MiB (7%)Alignment : Split accross interleavesInterleave, duration : 42 ms (1.00 video frame)Interleave, preload duratio : 500 msService kind : Complete Main

Audio #2ID : 2Format : AC-3Format/Info : Audio Coding 3Codec ID : 2000Duration : 1 h 55 minBit rate mode : ConstantBit rate : 192 kb/sChannel(s) : 2 channelsChannel positions : Front: L RSampling rate : 48.0 kHzFrame rate : 31.250 FPS (1536 SPF)Bit depth : 16 bitsCompression mode : LossyStream size : 158 MiB (7%)Alignment : Split accross interleavesInterleave, duration : 42 ms (1.00 video frame)Interleave, preload duratio : 500 msService kind : Complete Main

Audio #3ID : 3Format : AC-3Format/Info : Audio Coding 3Codec ID : 2000Duration : 1 h 55 minBit rate mode : ConstantBit rate : 448 kb/sChannel(s) : 6 channelsChannel positions : Front: L C R, Side: L R, LFESampling rate : 48.0 kHzFrame rate : 31.250 FPS (1536 SPF)Bit depth : 16 bitsCompression mode : LossyStream size : 369 MiB (17%)Alignment : Split accross interleavesInterleave, duration : 42 ms (1.00 video frame)Interleave, preload duratio : 500 msService kind : Complete Main


Трекер:  [ 18-Июл-2018 06:01 ]

  

Скачать .torrent

Размер .torrent файла 11 KB


Размер: 2.14 GB
Хэш (hash) релиза: 01dea6747eaf9d5cc3a31bf5482995889ae6a567
Подписка на обновления:

Торренты, похожие на Знакомство с Факерами Meet the Fockers скачать торрент

Форум Название Автор Размер S L Добавлен
Зарубежные фильмы до 2016 ·· Знакомство с Факерами / Meet the Fockers (Джей Роач) [720p/DVD5] [2004, Комедия, HD-DVD Rip] Galfimbul 50271325634.68 GB 0 0 1503563703

11:35

24-Авг-17

Видео для Консолей ·· [VIDEO4PSP] Знакомство с Факерами / Meet the Fockers (Джей Роуч / Jay Roach) [2004, комедия, мелодрама, HD-DVDRip] Galfimbul 636044460607 MB 0 0 1338661920

21:32

2-Июн-12

Зарубежные фильмы до 2016 ·· Знакомство с Факерами / Meet the Fockers (Джей Роач) [2004 г., Комедия, HD-DVD Remux 1080p] Nomak 1834503146917.09 GB 0 0 1295725961

22:52

22-Янв-11

Зарубежные фильмы до 2016 ·· Знакомство с Факерами / Meet the Fockers (Джей Роуч / Jay Roach) [2004, комедия, мелодрама, HDDVDRip-AVC] Dub + Oirginal + Subs (Rus + Eng) mikxtor 30821562412.87 GB 0 0 1290621226

20:53

24-Ноя-10

Зарубежные фильмы до 2016 ·· Знакомство с Факерами / Meet the Fockers (Джей Роуч / Jay Roach) [2004 г., Комедия, HDRip] Captain Claw 779020288743 MB 0 0 1290621068

20:51

24-Ноя-10

Зарубежные фильмы до 2016 ·· Знакомство с Факерами / Meet the Fockers (Джэй Роуч /Jay Roach) [2004, Комедия, роман, HDRip] DUB thesimpson 15646924801.46 GB 0 0 1290620963

20:49

24-Ноя-10

Зарубежные фильмы до 2016 ·· Факеры Трилогия (Знакомство с родителями, Знакомство с Факерами, Знакомство с Факерами 2) / Fockers Trilogy (Meet the Parents, Meet the Fockers, Little Fockers) (Джэй Роуч, Пол Вайц) [2000, 2004, 2010, комедия, BDRip 720] genkasper 1480035603713.78 GB 0 0 1302819764

01:22

15-Апр-11

Еще никто не оставлял запись к записи скачать торрент Знакомство с Факерами Meet the Fockers . Будь первым!

!Обратная связь