Batman of the Future | Boy Pick-Up: The Movie (2012) | Harold Hopkins

Скачать через торрент Во имя сыновей Au nom des fils Фильм бесплатно в хорошем качестве torrent

Скачивайте на UnionPeer.org фильмы через торрент без регистрации. Новинки кино в хорошем качестве через торрент. На UnionPeer.org можно скачать через торрент фильмы 2014 и 2015 годов. Самые новые фильмы.

Скачать торрент Во имя сыновей Au nom des fils бесплатно через .torrent фильм мультфильм сериал

Статистика раздачи
Размер:  2.1 GB   |    Зарегистрирован:  1 месяц   |    .torrent скачан:  21 раз   |   
Раздают:  1  
   
загрузка...
 
Автор Сообщение

Galfimbul

avatar Galfimbul


Во имя сыновей
Au nom des fils
Страна: Франция
Жанр: антиклерикальная драма
Год выпуска: 2014
Продолжительность: 01:31:19Перевод: Субтитры (русский перевод М.Лабори, Éclair Media)
Субтитры: русские, английские, французские, немецкие, нидерландские
Оригинальная аудиодорожка: французский

Режиссер: Кристиан Фор / Christian Faure

В ролях: Изабель Желина / Isabelle Gélinas (Anne Lotaire), Леа Дрюкер / Léa Drucker (Odile Chasseuil), Лионель Абелански / Lionel Abelanski (Pierre Chasseuil), Бернар Йерле / Bernard Yerlès (Serge Lotaire), Антуан Шаппе / Antoine Chappey (L'abbé Vialard), Солаль Форт / Solal Forte (Ludovic Lotaire), Алексис Лоре / Alexis Loret (Richard), Изабель Рено / Isabelle Renauld (Alice)

Описание: Фильм основан на трагических событиях июля 1998 года, случившихся у берегов кантона Перро-Гирек, когда во время морской экскурсии погибли четыре католика-скаута и спасатель. Две женщины: мать одного из погибших детей и мать спасателя, - обратились в суд, обвиняя в случившемся местную католическую ассоциацию во главе с аббатом Виаларом.

Доп. информация: Hot Bird (13.0°E) TV5MONDE Europe DVB-S

Награда: Специальный приз жюри Festival de la fiction TV de la Rochelle 2014.


Качество видео: DVB
Формат видео: MKV

Видео: MPEG Video 2, [email protected] (16:9), 25 fps, ~3040 kbps avg, 0.293 bit/pixel
Аудио: MPEG Audio 2, 2 ch, 48 kHz, 192 kbps - французский
Формат субтитров: softsub (SRT)
GeneralUnique ID : 252500908749061516099011401596132973728 (0xBDF5E7F71E5CD98B3CB1B0F4928CDCA0)Complete name : [apreder]Au_nom_des_fils(2014)DVB.mkvFormat : MatroskaFormat version : Version 2File size : 2.10 GiBDuration : 1 h 31 minOverall bit rate mode : VariableOverall bit rate : 3 298 kb/sMovie name : Au nom des filsReleased date : 2014-00-00Encoded date : UTC 2018-07-17 15:36:41Writing application : mkvmerge v25.0.0 ('Prog Noir') 64-bitWriting library : libebml v1.3.6 + libmatroska v1.4.9Cover : YesAttachments : cover.png / small_cover.pngACTOR : Isabelle Gélinas, Léa DruckerDIRECTOR : Christian FaureGENRE : DramaIMDB : tt3355112KEYWORDS : rutracker.orgLAW_RATING : 16+

VideoID : 1Format : MPEG VideoFormat version : Version 2Format profile : [email protected] settings : CustomMatrix / BVOPFormat settings, BVOP : YesFormat settings, Matrix : CustomFormat settings, GOP : M=4, N=12Format settings, picture structure : FrameCodec ID : V_MPEG2Codec ID/Info : MPEG 1 or 2 VideoDuration : 1 h 31 minBit rate mode : VariableBit rate : 3 040 kb/sMaximum bit rate : 15.0 Mb/sWidth : 720 pixelsHeight : 576 pixelsDisplay aspect ratio : 16:9Active Format Description : Letterbox 16:9 imageFrame rate mode : ConstantFrame rate : 25.000 FPSStandard : PALColor space : YUVChroma subsampling : 4:2:0Bit depth : 8 bitsScan type : InterlacedScan order : Top Field FirstCompression mode : LossyBits/(Pixel*Frame) : 0.293Stream size : 1.94 GiB (92%)Default : YesForced : No

AudioID : 2Format : MPEG AudioFormat version : Version 1Format profile : Layer 2Format settings : Joint stereo / Intensity Stereo + MS StereoCodec ID : A_MPEG/L2Codec ID/Hint : MP2Duration : 1 h 31 minBit rate mode : ConstantBit rate : 192 kb/sChannel(s) : 2 channelsSampling rate : 48.0 kHzCompression mode : LossyStream size : 125 MiB (6%)Language : FrenchDefault : YesForced : No

Text #1ID : 3Format : UTF-8Codec ID : S_TEXT/UTF8Codec ID/Info : UTF-8 Plain TextLanguage : RussianDefault : NoForced : No

Text #2ID : 4Format : UTF-8Codec ID : S_TEXT/UTF8Codec ID/Info : UTF-8 Plain TextLanguage : EnglishDefault : NoForced : No

Text #3ID : 5Format : UTF-8Codec ID : S_TEXT/UTF8Codec ID/Info : UTF-8 Plain TextLanguage : FrenchDefault : NoForced : No

Text #4ID : 6Format : UTF-8Codec ID : S_TEXT/UTF8Codec ID/Info : UTF-8 Plain TextLanguage : GermanDefault : NoForced : No

Text #5ID : 7Format : UTF-8Codec ID : S_TEXT/UTF8Codec ID/Info : UTF-8 Plain TextLanguage : DutchDefault : NoForced : No


<div class="sp-wrap">
<div class="sp-head folded">Резервные скриншоты</div>
<div class="sp-body">

</div>
</div>
[2'862]

Трекер:  [ 17-Июл-2018 19:01 ]

  

Скачать .torrent

Размер .torrent файла 21 KB


Размер: 2.1 GB
Хэш (hash) релиза: 722bb6b70540ff9ba9ea810a7368bc4db94d2d5e
Подписка на обновления:

Еще никто не оставлял запись к записи скачать торрент Во имя сыновей Au nom des fils . Будь первым!

!Обратная связь