Cartoons Rap Eminem Lucky You Ft Joyner Lucas mp3 song | Cobra Kai | Look Here

Скачать через торрент Вертикальный предел Vertical Limit Фильм бесплатно в хорошем качестве torrent

Скачивайте на UnionPeer.org фильмы через торрент без регистрации. Новинки кино в хорошем качестве через торрент. На UnionPeer.org можно скачать через торрент фильмы 2014 и 2015 годов. Самые новые фильмы.

Скачать торрент Вертикальный предел Vertical Limit бесплатно через .torrent фильм мультфильм сериал

Статистика раздачи
Размер:  6.7 GB   |    Зарегистрирован:  2 месяца 28 дней   |    .torrent скачан:  20 раз   |   
Раздают:  1  
   
загрузка...
 
Автор Сообщение

Galfimbul

avatar Galfimbul


Вертикальный предел / Vertical Limit

Страна: США, Германия
Жанр: боевик, триллер, драма, приключения
Год выпуска: 2000
Продолжительность: 02:04:27

Перевод: Профессиональный (дублированный)
Субтитры: нет
Оригинальная аудиодорожка: английская

Режиссер: Мартин Кэмпбелл / Martin Campbell

В ролях: Крис О’Доннелл, Билл Пэкстон, Робин Танни, Скотт Гленн, Изабелла Скорупко, Темуэра Моррисон, Стюарт Уилсон, Рошан Сет, Бен Мендельсон, Роберт Тейлор

Описание: Группа альпинистов оказалась погребенной заживо в расщелине у вершины К-2, второй после Эвереста горы мира. На такой высоте им оставалось жить считанные часы.
Шестеро отчаянных смельчаков решают подняться на роковую отметку, чтобы вызволить их из ледяной могилы. Но для этого им придется обогнать свою главную соперницу, которая уже спускается по склонам удушающим холодом и неожиданными лавинами — саму смерть.

Тип релиза: BDRip
Контейнер: MKV

Видео: MPEG-4 16:9 (1280x688(0.308)) AVC, 23,976 кадр/сек, 6499 Кбит/сек
Аудио: Russian (Dolby AC-3, 6 ch) 448 Кбит/сек, 48.0 КГц
Аудио 2: English (DTS, 6 ch) 768 Кбит/сек, 48.0 КГц
Рип от CtrlHD
Общее
Полное имя : Vertical Limit 2000 720p BluRay x264.mkv
Формат : Matroska
Версия формата : Version 1
Размер файла : 6,70 Гбайт
Продолжительность : 2 ч. 4 м.
Общий поток : 7706 Кбит/сек
Название фильма : Вертикальный предел / Vertical Limit (2000)
Дата кодирования : UTC 2008-10-27 12:50:08
Программа кодирования : mkvmerge v2.2.0 ('Turn It On Again') built on Mar 4 2008 12:58:26
Библиотека кодирования : libebml v0.7.7 + libmatroska v0.8.1

Видео
Идентификатор : 1
Формат : AVC
Формат/Информация : Advanced Video Codec
Профиль формата : [email protected]
Настройки формата : CABAC / 4 Ref Frames
Параметр CABAC формата : Да
Параметр RefFrames формата : 4 кадра
Идентификатор кодека : V_MPEG4/ISO/AVC
Продолжительность : 2 ч. 4 м.
Битрейт : 6499 Кбит/сек
Ширина : 1280 пикселей
Высота : 688 пикселей
Соотношение сторон : 1,85:1
Режим частоты кадров : Постоянный
Частота кадров : 23,976 кадра/сек
Цветовое пространство : YUV
Субдискретизация насыщенности : 4:2:0
Битовая глубина : 8 бит
Тип развёртки : Прогрессивная
Бит/(Пиксели*Кадры) : 0.308
Размер потока : 5,52 Гбайт (82%)
Библиотека кодирования : x264 core 64 r979M 6d4af8d
Настройки программы : cabac=1 / ref=4 / deblock=1:-3:-3 / analyse=0x1:0x111 / me=umh / subme=6 / psy_rd=1.1:0.0 / brdo=1 / mixed_ref=1 / me_range=16 / chroma_me=1 / trellis=2 / 8x8dct=0 / cqm=0 / deadzone=21,11 / chroma_qp_offset=-2 / threads=6 / nr=0 / decimate=1 / mbaff=0 / bframes=4 / b_pyramid=1 / b_adapt=1 / b_bias=0 / direct=3 / wpredb=1 / bime=1 / keyint=250 / keyint_min=25 / scenecut=40(pre) / rc=2pass / bitrate=6499 / ratetol=1.0 / qcomp=0.60 / qpmin=10 / qpmax=51 / qpstep=4 / cplxblur=20.0 / qblur=0.5 / ip_ratio=1.40 / pb_ratio=1.30 / aq=1:0.80
Язык : English
Default : Да
Forced : Нет

Аудио #1
Идентификатор : 2
Формат : AC-3
Формат/Информация : Audio Coding 3
Идентификатор кодека : A_AC3
Продолжительность : 2 ч. 4 м.
Вид битрейта : Постоянный
Битрейт : 448 Кбит/сек
Каналы : 6 каналов
Расположение каналов : Front: L C R, Side: L R, LFE
Частота : 48,0 КГц
Частота кадров : 31,250 кадров/сек (1536 SPF)
Битовая глубина : 16 бит
Метод сжатия : С потерями
Размер потока : 399 Мбайт (6%)
Заголовок : AC3 - 448 Kbps
Язык : Russian
ServiceKind/String : Complete Main
Default : Да
Forced : Нет

Аудио #2
Идентификатор : 3
Формат : DTS
Формат/Информация : Digital Theater Systems
Идентификатор кодека : A_DTS
Продолжительность : 2 ч. 4 м.
Вид битрейта : Постоянный
Битрейт : 755 Кбит/сек
Каналы : 6 каналов
Расположение каналов : Front: L C R, Side: L R, LFE
Частота : 48,0 КГц
Частота кадров : 93,750 кадра/сек (512 SPF)
Битовая глубина : 24 бит
Метод сжатия : С потерями
Размер потока : 672 Мбайт (10%)
Заголовок : DTS - 768 Kbps
Язык : English
Default : Нет
Forced : Нет


Трекер:  [ 17-Июл-2018 17:30 ]

  

Скачать .torrent

Размер .torrent файла 17 KB


Размер: 6.7 GB
Хэш (hash) релиза: 09311e1c2334953144e9b6e3601755b39ed73dc1
Подписка на обновления:

Торренты, похожие на Вертикальный предел Vertical Limit скачать торрент

Форум Название Автор Размер S L Добавлен
Зарубежные фильмы до 2016 ·· Вертикальный предел / Vertical Limit (Мартин Кэмпбелл) [2000, боевик, триллер, приключения, 1080p, BDRip] Galfimbul 1316926738712.26 GB 0 0 1507530985

09:36

9-Окт-17

Зарубежные фильмы до 2016 ·· Вертикальный предел / Vertical Limit (Мартин Кэмпбелл / Martin Campbell) [2000 г., приключения, HDRip] MVO (ОРТ) Galfimbul 23436472322.18 GB 0 0 1365326192

12:16

7-Апр-13

Зарубежные фильмы до 2016 ·· Вертикальный предел / Vertical Limit (Мартин Кэмпбелл / Martin Campbell) [2000 г., Боевик, триллер, приключения, HDRip-AVC] DUB + MVO + original eng + rus sub Galfimbul 23458768222.18 GB 0 0 1365319299

10:21

7-Апр-13

Зарубежные фильмы до 2016 ·· Вертикальный предел / Vertical Limit (Мартин Кэмпбелл / Martin Campbell) [2000, боевик, триллер, приключения, BDRip-AVC] DUB + 3 x MVO + 3 x AVO + Original + Sub (Rus, Eng) L 57122581935.32 GB 0 0 1322416120

20:48

27-Ноя-11

Зарубежные фильмы до 2016 ·· Вертикальный предел / Vertical Limit (Мартин Кэмпбелл / Martin Campbell) [2000, приключения, Blu-ray] Captain Claw 3932106873936.62 GB 0 0 1295729474

23:51

22-Янв-11

Зарубежные фильмы до 2016 ·· Вертикальный предел / Vertical Limit (Мартин Кэмпбелл / Martin Campbell) [2000 г., триллер, приключения, драма, BDRip 1080p] L 93387585768.7 GB 0 0 1295725837

22:50

22-Янв-11

Зарубежные фильмы до 2016 ·· Вертикальный предел / Vertical Limit (Мартин Кэмпбелл / Martin Campbell) [2000, США, триллер, приключения, боевик, Blu-ray, 1080p] DUB Sub rus + original eng Demonessa 3666822153034.15 GB 0 0 1295725698

22:48

22-Янв-11

Зарубежные фильмы до 2016 ·· Вертикальный предел / Vertical Limit (Мартин Кэмпбелл / Martin Campbell) [2000 г., Боевик, Приключения, Триллер, HDRip] Dub MrDjo 15681495041.46 GB 0 0 1290622505

21:15

24-Ноя-10

Зарубежные фильмы до 2016 ·· Вертикальный предел / Вертикальный лимит / Vertical Limit (Мартин Кэмпбелл / Martin Campbell) [2000, США, Приключение, Триллер, HDRip] MVO (ОРТ) Galfimbul 781334528745 MB 0 0 1365320526

10:42

7-Апр-13

Еще никто не оставлял запись к записи скачать торрент Вертикальный предел Vertical Limit . Будь первым!

!Обратная связь