Good Kids VF STREAMING HD | Aventura | Morning Joe 2018 07 24 1080p WEBRip x264-PC

Скачать через торрент Саламандра The salamander Фильм бесплатно в хорошем качестве torrent

Скачивайте на UnionPeer.org фильмы через торрент без регистрации. Новинки кино в хорошем качестве через торрент. На UnionPeer.org можно скачать через торрент фильмы 2014 и 2015 годов. Самые новые фильмы.

Скачать торрент Саламандра The salamander бесплатно через .torrent фильм мультфильм сериал

Статистика раздачи
Размер:  4.9 GB   |    Зарегистрирован:  29 дней   |    .torrent скачан:  27 раз   |   
Раздают:  1  
   
загрузка...
 
Автор Сообщение

Galfimbul

avatar Galfimbul


Саламандра / The salamander

Страна: США, Великобритания, Италия
Студия: Incorporated Television Company (ITC), Opera Film Produzione, Orbi S.A.
Жанр: драма, детектив, триллер
Год выпуска: 1981
Продолжительность: 01:41:25

Перевод: Профессиональный (многоголосый закадровый) - Интра-Коммуникейшнс по заказу телеканала "100-ТВ
Перевод 2: Авторский (одноголосый закадровый) - Андрей Гаврилов
Субтитры: нет
Оригинальная аудиодорожка: английский

Режиссер: Питер Зиннер / Peter Zinner

В ролях: Франко Неро, Энтони Куинн, Мартин Болсам, Сибил Даннинг, Кристофер Ли, Кливон Литтл, Пол Л. Смит, Джон Стайнер, Клаудия Кардинале, Илай Уоллак, Ренцо Пальмер, Анита Стриндберг, Марино Мазе, Жак Эрлен, Фортунато Арена, Джон Стэйси, Андреа Эстерхази, Массимо Чипрари, Ларри Долгин, Тони Брандт, Аттилио Доттезио, Том Феллеги, Альфонсо Джиганти, Маргерита Хоровиц, Гитте Ли, Нелло Паццафини, Амедео Шаламон

Описание: По роману Мориса Уэста, навеянному одиозным скандалом конца 70-х, когда масонская ложа П-2, руководимая проходимцем-сатанистом Личо Джелли, едва не устроила в Италии натуральный государственный переворот.
Расследуя дело об убийстве высокопоставленного генерала, полковник полиции Данте Маттуччи выясняет, что покойный был связан с итальянскими неофашисткими группировками. Неожиданно для Матуччи дело об убийстве засекречивают. Тогда он начинает собственное расследование. В этом ему берется помочь миллиардер Бруно Манцини. В ходе расследования выясняется, что в Италии существует мощная военно-фашистская организация, связанная с международной мафией и собирающаяся совершить в стране политический переворот...

Доп. информация: Релиз, скачанный с кинозала у пользователя msltel, сделан с этого исходника - ...5584014.

Сэмпл: http://cloud.mail.ru/public/FoVj/kgYigLpme

Тип релиза: BDRip 720p
Контейнер: MKV

Видео: 5654 Кбит/сек, AVC 1280*720 (16:9), 23,976 кадра/сек, CABAC
Аудио: Русский, 224 Кбит/сек, 48,0 КГц, 16 бит, 2 канала, AC-3 - Интра
Аудио 2: Русский, 256 Кбит/сек, 48,0 КГц, 16 бит, 2 канала, AC-3 - Гаврилов
Аудио 3: Английский, 775 Кбит/сек, 48,0 КГц, 24 бит, 2 канала, FLAC
ОбщееУникальный идентификатор : 14170516604499270537374392401343263109 (0xAA92468E5AE8E70A2875803E92FB185)Полное имя : H:\MONAR\Видео\Художественные фильмы\Зарубежное кино\Саламандра (1981) BDRip 720p.mkvФормат : MatroskaВерсия формата : Version 4 / Version 2Размер файла : 4,90 ГбайтПродолжительность : 1 ч. 41 м.Режим общего битрейта : ПеременныйОбщий поток : 6912 Кбит/секНазвание фильма : The salamander (1981)Дата кодирования : UTC 2018-07-15 12:15:01Программа кодирования : mkvmerge v24.0.0 ('Beyond The Pale') 64-bitБиблиотека кодирования : libebml v1.3.6 + libmatroska v1.4.9

ВидеоИдентификатор : 1Формат : AVCФормат/Информация : Advanced Video CodecПрофиль формата : [email protected]Настройки формата : CABAC / 9 Ref FramesПараметр CABAC формата : ДаПараметр RefFrames формата : 9 кадровИдентификатор кодека : V_MPEG4/ISO/AVCПродолжительность : 1 ч. 41 м.Битрейт : 5654 Кбит/секШирина : 1280 пикселейВысота : 720 пикселейСоотношение сторон : 16:9Режим частоты кадров : ПостоянныйЧастота кадров : 23,976 (24000/1001) кадра/секЦветовое пространство : YUVСубдискретизация насыщенности : 4:2:0Битовая глубина : 8 битТип развёртки : ПрогрессивнаяБит/(Пиксели*Кадры) : 0.256Размер потока : 4,01 Гбайт (82%)Библиотека кодирования : x264 core 146 r2538 121396cНастройки программы : cabac=1 / ref=9 / deblock=1:-3:-2 / analyse=0x3:0x113 / me=umh / subme=11 / psy=1 / psy_rd=1.00:0.15 / mixed_ref=1 / me_range=32 / chroma_me=1 / trellis=2 / 8x8dct=1 / cqm=0 / deadzone=21,11 / fast_pskip=0 / chroma_qp_offset=-3 / threads=6 / lookahead_threads=1 / sliced_threads=0 / nr=0 / decimate=1 / interlaced=0 / bluray_compat=0 / constrained_intra=0 / bframes=6 / b_pyramid=2 / b_adapt=2 / b_bias=0 / direct=1 / weightb=1 / open_gop=0 / weightp=2 / keyint=230 / keyint_min=23 / scenecut=40 / intra_refresh=0 / rc_lookahead=40 / rc=crf / mbtree=0 / crf=19.9 / qcomp=0.60 / qpmin=0 / qpmax=69 / qpstep=4 / vbv_maxrate=62500 / vbv_bufsize=78125 / crf_max=0.0 / nal_hrd=none / filler=0 / ip_ratio=1.40 / pb_ratio=1.30 / aq=1:1.00Язык : EnglishDefault : ДаForced : Нет

Аудио #1Идентификатор : 2Формат : AC-3Формат/Информация : Audio Coding 3Идентификатор кодека : A_AC3Продолжительность : 1 ч. 41 м.Вид битрейта : ПостоянныйБитрейт : 224 Кбит/секКаналы : 2 каналаРасположение каналов : Front: L RЧастота : 48,0 КГцЧастота кадров : 31,250 кадров/сек (1536 SPF)Битовая глубина : 16 битМетод сжатия : С потерямиРазмер потока : 162 Мбайт (3%)Заголовок : MVOЯзык : RussianServiceKind/String : Complete MainDefault : ДаForced : Нет

Аудио #2Идентификатор : 3Формат : AC-3Формат/Информация : Audio Coding 3Идентификатор кодека : A_AC3Продолжительность : 1 ч. 41 м.Вид битрейта : ПостоянныйБитрейт : 256 Кбит/секКаналы : 2 каналаРасположение каналов : Front: L RЧастота : 48,0 КГцЧастота кадров : 31,250 кадров/сек (1536 SPF)Битовая глубина : 16 битМетод сжатия : С потерямиРазмер потока : 186 Мбайт (4%)Заголовок : AVOЯзык : RussianServiceKind/String : Complete MainDefault : НетForced : Нет

Аудио #3Идентификатор : 4Формат : FLACФормат/Информация : Free Lossless Audio CodecИдентификатор кодека : A_FLACПродолжительность : 1 ч. 41 м.Вид битрейта : ПеременныйБитрейт : 775 Кбит/секКаналы : 2 каналаРасположение каналов : Front: L RЧастота : 48,0 КГцЧастота кадров : 11,719 кадров/сек (4096 SPF)Битовая глубина : 24 битРазмер потока : 563 Мбайт (11%)Заголовок : originalБиблиотека кодирования : libFLAC 1.2.1 (UTC 2007-09-17)Язык : EnglishDefault : НетForced : Нет

Меню00:00:00.000 : en:00:00:00.00000:04:56.713 : en:00:04:56.71300:08:20.417 : en:00:08:20.41700:13:20.216 : en:00:13:20.21600:22:39.859 : en:00:22:39.85900:26:58.367 : en:00:26:58.36700:32:03.422 : en:00:32:03.42200:37:11.146 : en:00:37:11.14600:43:53.506 : en:00:43:53.50600:49:01.272 : en:00:49:01.27200:58:08.652 : en:00:58:08.65201:05:31.594 : en:01:05:31.59401:14:00.519 : en:01:14:00.51901:19:37.147 : en:01:19:37.14701:23:57.282 : en:01:23:57.28201:34:18.862 : en:01:34:18.86201:39:18.995 : en:01:39:18.995


Трекер:  [ 17-Июл-2018 09:30 ]

  

Скачать .torrent

Размер .torrent файла 25 KB


Размер: 4.9 GB
Хэш (hash) релиза: a90904b800d4e2283a5c27199464604f71f4e739
Подписка на обновления:

Еще никто не оставлял запись к записи скачать торрент Саламандра The salamander . Будь первым!

!Обратная связь