The Legend | 23.09.1821:26 Uhr Dance and RNB Charts Songs Dance320 kbit/s 0 / 01.926 Hits VID P2P DDL 0 Kommentare | Avira Antivirus v4.5 APK modded apk

Скачать через торрент Телесеть Network Фильм бесплатно в хорошем качестве torrent

Скачивайте на UnionPeer.org фильмы через торрент без регистрации. Новинки кино в хорошем качестве через торрент. На UnionPeer.org можно скачать через торрент фильмы 2014 и 2015 годов. Самые новые фильмы.

Скачать торрент Телесеть Network бесплатно через .torrent фильм мультфильм сериал

Статистика раздачи
Размер:  9.13 GB   |    Зарегистрирован:  2 месяца 29 дней   |    .torrent скачан:  24 раза   |   
Раздают:  1  
   
загрузка...
 
Автор Сообщение

Galfimbul

avatar Galfimbul


Телесеть / Network

Страна: США
Студия: Metro-Goldwyn-Mayer (MGM), United Artists
Жанр: драма
Год выпуска: 1976
Продолжительность: 02:01:20

Перевод: Профессиональный (многоголосый закадровый) - т/к "Домашний"
Перевод 2: Профессиональный (многоголосый закадровый) - СВ-Дубль
Перевод 3: Профессиональный (двухголосый закадровый) - Союз Видео
Субтитры: русские, английские
Оригинальная аудиодорожка: английский

Режиссер: Сидни Люмет / Sidney Lumet

В ролях: Питер Финч, Фэй Данауэй, Уильям Холден, Роберт Дювалл, Уэсли Эдди, Нед Битти, Артур Бергхардт, Билл Берроуз, Джон Карпентер, Джордан Чарни, Кэти Кронкит, Эд Краули, Джером Демпси, Кончата Феррелл, Джин Гросс, Стэнли Гроувер, Синди Гроувер, Дэррил Хикман, Митчелл Джейсон, Пол Дженкинс, Кен Керчевал, Кеннет Кимминс, Линн Клагман, Кэролайн Кригбаум, Зейн Ласки, Майкл Липтон, Майкл Ломбард, Пири МакДональд, Расс Петрано, Бернард Поллок, Рой Пул, Уильям Принц, Саша Фон Шерлер, Лейн Смит, Тед Сорел, Беатрис Стрэйт, Фред Статмен, Камерон Томас, Марлен Уорфилд, Лидия Вилен, Ли Ричардсон, Уолтер Кронкайт, Эндрю Дункан, Тодд Эверетт, Бетти Форд, Джеральд Форд, Джон Гэбриел, Том Гибни, Лэнс Хенриксен, Рэймонд Мартино, Ховард К. Смит, Дэвид Сусскинд, Майкл Такер, Ахмед Ямани

Описание: Постоянный «гвоздь программы» новостей телестанции UBS-TV Говард Били погорел: во время прямого эфира у него случился нервный срыв. По иронии, публичное бесчинство подняло его, и без того баснословный рейтинг, к неожиданному ликованию боссов UBS. Как следствие, прославившись в качестве «безумного пророка прямого эфира», он вскоре превратился в пешку для безжалостного теленачальства, которое выдаивало из него сумасшедшие выходки при любом удобном случае. Само собой, когда «пророк» стал не впрок, с ним надо было срочно что-то решать, желательно перед камерой, и при полной аудитории...

Доп. информация: В данный рип - ...3494855, содержащий английский оригинал, русские и английские субтитры, по согласованию с автором релиза добавлена многоголоска, скачанная с кинозала у пользователя Marvel, дотянутая Нордером двухголоска из релиза - ...5193672, а шипящая многоголоска заменена на синхронизированную и почищенную Нордером многоголоску из релиза - ...1155335.

Сэмпл: http://cloud.mail.ru/public/8LBD/gbjqwEBU3

Тип релиза: BDRip 720p
Контейнер: MKV

Видео: 9500 Кбит/сек, AVC 1280*720 (16:9), 23,976 кадра/сек, CABAC
Аудио: Русский, 192 Кбит/сек, 48,0 КГц, 16 бит, 2 канала, AC-3 - т/к "Домашний"
Аудио 2: Русский, 192 Кбит/сек, 48,0 КГц, 16 бит, 2 канала, AC-3 - СВ-Дубль
Аудио 3: Русский, 192 Кбит/сек, 48,0 КГц, 16 бит, 2 канала, AC-3 - Союз Видео
Аудио 4: Английский, 696 Кбит/сек, 48,0 КГц, 24 бит, 1 канал, FLAC
Формат субтитров: softsub (SRT)
ОбщееУникальный идентификатор : 245864464232242948808394761986614437657 (0xB8F7C5FD0E08AF7DF7E6462C9D1B2719)Полное имя : G:\MONAR\Художественные фильмы\Зарубежное кино\Телесеть (1976) BDRip 720p.mkvФормат : MatroskaВерсия формата : Version 4 / Version 2Размер файла : 9,13 ГбайтПродолжительность : 2 ч. 1 м.Режим общего битрейта : ПеременныйОбщий поток : 10,8 Мбит/секНазвание фильма : Network (1976)Дата кодирования : UTC 2018-07-14 15:35:51Программа кодирования : mkvmerge v24.0.0 ('Beyond The Pale') 64-bitБиблиотека кодирования : libebml v1.3.6 + libmatroska v1.4.9

ВидеоИдентификатор : 1Формат : AVCФормат/Информация : Advanced Video CodecПрофиль формата : [email protected]Настройки формата : CABAC / 9 Ref FramesПараметр CABAC формата : ДаПараметр RefFrames формата : 9 кадровИдентификатор кодека : V_MPEG4/ISO/AVCПродолжительность : 2 ч. 1 м.Битрейт : 9500 Кбит/секШирина : 1280 пикселейВысота : 720 пикселейСоотношение сторон : 16:9Режим частоты кадров : ПостоянныйЧастота кадров : 23,976 (24000/1001) кадра/секЦветовое пространство : YUVСубдискретизация насыщенности : 4:2:0Битовая глубина : 8 битТип развёртки : ПрогрессивнаяБит/(Пиксели*Кадры) : 0.430Размер потока : 8,05 Гбайт (88%)Библиотека кодирования : x264 core 114 r1913 5fd3dceНастройки программы : cabac=1 / ref=9 / deblock=1:-3:-3 / analyse=0x3:0x133 / me=tesa / subme=10 / psy=1 / psy_rd=1.10:0.10 / mixed_ref=1 / me_range=32 / chroma_me=1 / trellis=2 / 8x8dct=1 / cqm=0 / deadzone=21,11 / fast_pskip=0 / chroma_qp_offset=-3 / threads=8 / sliced_threads=0 / nr=0 / decimate=0 / interlaced=0 / constrained_intra=0 / bframes=16 / b_pyramid=2 / b_adapt=2 / b_bias=0 / direct=3 / weightb=1 / open_gop=0 / weightp=2 / keyint=250 / keyint_min=23 / scenecut=40 / intra_refresh=0 / rc=2pass / mbtree=0 / bitrate=9500 / ratetol=1.0 / qcomp=0.70 / qpmin=0 / qpmax=69 / qpstep=4 / cplxblur=20.0 / qblur=0.5 / ip_ratio=1.40 / pb_ratio=1.30 / aq=2:0.60Язык : EnglishDefault : ДаForced : Нет

Аудио #1Идентификатор : 2Формат : AC-3Формат/Информация : Audio Coding 3Идентификатор кодека : A_AC3Продолжительность : 2 ч. 1 м.Вид битрейта : ПостоянныйБитрейт : 192 Кбит/секКаналы : 2 каналаРасположение каналов : Front: L RЧастота : 48,0 КГцЧастота кадров : 31,250 кадров/сек (1536 SPF)Битовая глубина : 16 битМетод сжатия : С потерямиРазмер потока : 167 Мбайт (2%)Заголовок : MVOЯзык : RussianServiceKind/String : Complete MainDefault : ДаForced : Нет

Аудио #2Идентификатор : 3Формат : AC-3Формат/Информация : Audio Coding 3Идентификатор кодека : A_AC3Продолжительность : 2 ч. 1 м.Вид битрейта : ПостоянныйБитрейт : 192 Кбит/секКаналы : 2 каналаРасположение каналов : Front: L RЧастота : 48,0 КГцЧастота кадров : 31,250 кадров/сек (1536 SPF)Битовая глубина : 16 битМетод сжатия : С потерямиРазмер потока : 167 Мбайт (2%)Заголовок : MVOЯзык : RussianServiceKind/String : Complete MainDefault : НетForced : Нет

Аудио #3Идентификатор : 4Формат : AC-3Формат/Информация : Audio Coding 3Идентификатор кодека : A_AC3Продолжительность : 2 ч. 1 м.Вид битрейта : ПостоянныйБитрейт : 192 Кбит/секКаналы : 2 каналаРасположение каналов : Front: L RЧастота : 48,0 КГцЧастота кадров : 31,250 кадров/сек (1536 SPF)Битовая глубина : 16 битМетод сжатия : С потерямиРазмер потока : 167 Мбайт (2%)Заголовок : DVOЯзык : RussianServiceKind/String : Complete MainDefault : НетForced : Нет

Аудио #4Идентификатор : 5Формат : FLACФормат/Информация : Free Lossless Audio CodecИдентификатор кодека : A_FLACПродолжительность : 2 ч. 1 м.Вид битрейта : ПеременныйБитрейт : 696 Кбит/секКаналы : 1 каналРасположение каналов : Front: CЧастота : 48,0 КГцЧастота кадров : 11,719 кадров/сек (4096 SPF)Битовая глубина : 24 битРазмер потока : 604 Мбайт (6%)Заголовок : originalБиблиотека кодирования : libFLAC 1.2.1 (UTC 2007-09-17)Язык : EnglishDefault : НетForced : Нет

Текст #1Идентификатор : 6Формат : UTF-8Идентификатор кодека : S_TEXT/UTF8Идентификатор кодека/Информация : UTF-8 Plain TextПродолжительность : 1 ч. 59 м.Битрейт : 152 бит/секElementCount : 1746Размер потока : 134 Кбайт (0%)Заголовок : srtЯзык : RussianDefault : НетForced : Нет

Текст #2Идентификатор : 7Формат : UTF-8Идентификатор кодека : S_TEXT/UTF8Идентификатор кодека/Информация : UTF-8 Plain TextПродолжительность : 1 ч. 59 м.Битрейт : 95 бит/секElementCount : 1783Размер потока : 83,4 Кбайт (0%)Заголовок : srtЯзык : EnglishDefault : НетForced : Нет

Меню00:00:00.000 : en:Death Hour00:02:21.892 : en:Credits00:03:42.722 : en:Howard's Announcement00:06:12.998 : en:Another Shot00:13:06.536 : en:Articulated Anger00:16:18.603 : en:No More Bull00:18:02.415 : en:Saying What They Feel00:22:34.395 : en:Diana's Pitch00:25:01.917 : en:Angry Prophet00:30:09.558 : en:Made Man00:34:03.500 : en:Their Script00:39:27.532 : en:Why Me?00:41:40.790 : en:Howard is Gone00:48:57.518 : en:Hit Man00:53:26.870 : en:Mad as Hell00:57:39.998 : en:L.A. Powwow01:02:28.453 : en:Preaching the Real Thing01:07:12.028 : en:Getting Involved01:08:28.146 : en:Weekend Getaway01:11:37.752 : en:Max and Louise's Scene01:14:54.031 : en:Negotiations01:19:40.985 : en:Affiliates Meeting01:21:34.306 : en:Taking on the Arabs01:23:47.731 : en:Wrath of God01:31:34.447 : en:Face of God01:37:49.155 : en:New Philosophy01:41:12.650 : en:Primal Doubts01:44:52.745 : en:Replacement Sought01:46:58.621 : en:Happy Ending01:52:30.786 : en:Number Crunchers01:57:26.706 : en:Final Cancellation01:59:19.652 : en:End Credits
...3451605
Enclave76 vs sovsem-neduhoven


Трекер:  [ 17-Июл-2018 09:30 ]

  

Скачать .torrent

Размер .torrent файла 46 KB


Размер: 9.13 GB
Хэш (hash) релиза: 2771dbff4dd1f91679195c713c9bd6b4cfea9a63
Подписка на обновления:

Еще никто не оставлял запись к записи скачать торрент Телесеть Network . Будь первым!

!Обратная связь