Jillian Murray | Spartacus: Gods Of The Arena | Sakura Trick Vol.5 Ch.6

Скачать через торрент Смотри по сторонам Better Watch Out Фильм бесплатно в хорошем качестве torrent

Скачивайте на UnionPeer.org фильмы через торрент без регистрации. Новинки кино в хорошем качестве через торрент. На UnionPeer.org можно скачать через торрент фильмы 2014 и 2015 годов. Самые новые фильмы.

Скачать торрент Смотри по сторонам Better Watch Out бесплатно через .torrent фильм мультфильм сериал

Статистика раздачи
Размер:  4.2 GB   |    Зарегистрирован:  30 дней   |    .torrent скачан:  25 раз   |   
Раздают:  1  
   
загрузка...
 
Автор Сообщение

Galfimbul

avatar Galfimbul


Смотри по сторонам / Better Watch Out

Страна: Австралия, США
Студия: Storm Vision Entertainment, Best Medicine Productions
Жанр: ужасы, триллер
Год выпуска: 2016
Продолжительность: 01:28:50

Перевод 1: Профессиональный (дублированный) iTunes
Перевод 2: Одноголосый закадровый BadBajo
Субтитры: английские
Оригинальная аудиодорожка: английский

Режиссер: Крис Пековер / Chris Peckover

В ролях: Патрик Варбертон, Вирджиния Мэдсен, Дакре Монтгомери, Оливия ДеДжонг, Леви Миллер, Эд Оксенбульд, Брендан Клиркин, Тара Борг, Алекс Микич, Триша Мэри Хеннэси и др.

Описание: В доме на тихой пригородной улочке няня пытается защитить двенадцатилетнего мальчика от взломщиков, но вскоре обнаруживает, что это далеко не обыкновенное вторжение.



Сэмпл IMDB Кинопоиск



Тип релиза: BDRip 720p
Контейнер: MKV

Видео: AVC / 1280x536 / 2.40:1 / 24.0 fps / 4500 Kbps / [email protected]
Аудио 1 Rus: AC3 / 48.0 KHz / 5.1 / 384 kbps / Dub / iTunes
Аудио 2 Rus: AC3 / 48.0 KHz / 5.1 / 384 kbps / VO / BadBajo
Аудио 3 Eng: DTS / 48.0 KHz / 5.1 / 1509 kbps / 16 bit
Формат субтитров: softsub (SRT)
Общее
Уникальный идентификатор : 232956493420941307745472638023874150228 (0xAF41C9E46F3B97AB715E303E19407F54)
Полное имя : E:\porvaliparus.2018\Better.Watch.Out.2016 BDRip.720p.mkv
Формат : Matroska
Версия формата : Version 4 / Version 2
Размер файла : 4,20 Гбайт
Продолжительность : 1 ч. 28 м.
Общий поток : 6770 Кбит/сек
Название фильма : Better.Watch.Out.2016 BDRip.720p-porvaliparus
Дата кодирования : UTC 2018-07-12 05:10:36
Программа кодирования : mkvmerge v24.0.0 ('Beyond The Pale') 64-bit
Библиотека кодирования : libebml v1.3.6 + libmatroska v1.4.9

Видео
Идентификатор : 1
Формат : AVC
Формат/Информация : Advanced Video Codec
Профиль формата : [email protected]
Настройки формата : CABAC / 12 Ref Frames
Параметр CABAC формата : Да
Параметр RefFrames формата : 12 кадров
Идентификатор кодека : V_MPEG4/ISO/AVC
Продолжительность : 1 ч. 28 м.
Битрейт : 4500 Кбит/сек
Ширина : 1280 пикселей
Высота : 536 пикселей
Соотношение сторон : 2,40:1
Режим частоты кадров : Постоянный
Частота кадров : 24,000 кадра/сек
Цветовое пространство : YUV
Субдискретизация насыщенности : 4:2:0
Битовая глубина : 8 бит
Тип развёртки : Прогрессивная
Бит/(Пиксели*Кадры) : 0.273
Размер потока : 2,79 Гбайт (66%)
Заголовок : Better.Watch.Out.2016 BDRip.720p
Библиотека кодирования : x264 core 152 r2851 ba24899
Настройки программы : cabac=1 / ref=12 / deblock=1:-3:-3 / analyse=0x3:0x133 / me=umh / subme=11 / psy=1 / psy_rd=1.00:0.10 / mixed_ref=1 / me_range=32 / chroma_me=1 / trellis=2 / 8x8dct=1 / cqm=0 / deadzone=21,11 / fast_pskip=0 / chroma_qp_offset=-3 / threads=12 / lookahead_threads=3 / sliced_threads=0 / nr=0 / decimate=1 / interlaced=0 / bluray_compat=0 / constrained_intra=0 / bframes=10 / b_pyramid=2 / b_adapt=2 / b_bias=0 / direct=3 / weightb=1 / open_gop=0 / weightp=2 / keyint=250 / keyint_min=23 / scenecut=40 / intra_refresh=0 / rc_lookahead=40 / rc=2pass / mbtree=0 / bitrate=4500 / ratetol=1.0 / qcomp=0.60 / qpmin=0 / qpmax=69 / qpstep=4 / cplxblur=20.0 / qblur=0.5 / vbv_maxrate=50000 / vbv_bufsize=62500 / nal_hrd=none / filler=0 / ip_ratio=1.40 / pb_ratio=1.30 / aq=1:0.80
Default : Да
Forced : Нет

Аудио #1
Идентификатор : 2
Формат : AC-3
Формат/Информация : Audio Coding 3
Идентификатор кодека : A_AC3
Продолжительность : 1 ч. 28 м.
Вид битрейта : Постоянный
Битрейт : 384 Кбит/сек
Каналы : 6 каналов
Расположение каналов : Front: L C R, Side: L R, LFE
Частота : 48,0 КГц
Частота кадров : 31,250 кадров/сек (1536 SPF)
Битовая глубина : 16 бит
Метод сжатия : С потерями
Размер потока : 244 Мбайт (6%)
Заголовок : Dub [iTunes]
Язык : Russian
ServiceKind/String : Complete Main
Default : Да
Forced : Нет

Аудио #2
Идентификатор : 3
Формат : AC-3
Формат/Информация : Audio Coding 3
Идентификатор кодека : A_AC3
Продолжительность : 1 ч. 28 м.
Вид битрейта : Постоянный
Битрейт : 384 Кбит/сек
Каналы : 6 каналов
Расположение каналов : Front: L C R, Side: L R, LFE
Частота : 48,0 КГц
Частота кадров : 31,250 кадров/сек (1536 SPF)
Битовая глубина : 16 бит
Метод сжатия : С потерями
Размер потока : 244 Мбайт (6%)
Заголовок : VO [BadBajo]
Язык : Russian
ServiceKind/String : Complete Main
Default : Нет
Forced : Нет

Аудио #3
Идентификатор : 4
Формат : DTS
Формат/Информация : Digital Theater Systems
Идентификатор кодека : A_DTS
Продолжительность : 1 ч. 28 м.
Вид битрейта : Постоянный
Битрейт : 1509 Кбит/сек
Каналы : 6 каналов
Расположение каналов : Front: L C R, Side: L R, LFE
Частота : 48,0 КГц
Частота кадров : 93,750 кадра/сек (512 SPF)
Битовая глубина : 16 бит
Метод сжатия : С потерями
Размер потока : 959 Мбайт (22%)
Язык : English
Default : Нет
Forced : Нет

Текст
Идентификатор : 5
Формат : UTF-8
Идентификатор кодека : S_TEXT/UTF8
Идентификатор кодека/Информация : UTF-8 Plain Text
Продолжительность : 1 ч. 25 м.
Битрейт : 55 бит/сек
ElementCount : 1306
Размер потока : 34,6 Кбайт (0%)
Язык : English
Default : Нет
Forced : Нет

Меню
00:00:00.000 : en:Chapter 1
00:06:42.500 : en:Chapter 2
00:11:53.000 : en:Chapter 3
00:21:24.000 : en:Chapter 4
00:29:56.083 : en:Chapter 5
00:33:32.083 : en:Chapter 6
00:44:51.708 : en:Chapter 7
00:55:02.625 : en:Chapter 8
01:02:11.542 : en:Chapter 9
01:09:28.292 : en:Chapter 10
01:17:59.000 : en:Chapter 11
01:23:42.875 : en:Chapter 12
<div class="sp-wrap">
<div class="sp-head folded">log x264</div>
<div class="sp-body">x264 [info]: using SAR=1/1
x264 [info]: using cpu capabilities: MMX2 SSE2Fast SSSE3 SSE4.2 AVX
x264 [info]: profile High, level 4.1

x264 [info]: frame I:1014 Avg QP:12.07 size:112210
x264 [info]: frame P:25226 Avg QP:13.96 size: 41568
x264 [info]: frame B:101684 Avg QP:15.88 size: 17987
x264 [info]: consecutive B-frames: 1.5% 1.6% 8.3% 8.1% 13.4% 55.4% 6.5% 1.7% 1.2% 1.0% 1.4%
x264 [info]: mb I I16..4: 12.6% 67.9% 19.5%
x264 [info]: mb P I16..4: 2.0% 16.5% 1.7% P16..4: 25.2% 31.3% 13.0% 1.9% 0.2% skip: 8.4%
x264 [info]: mb B I16..4: 0.6% 1.7% 0.2% B16..8: 32.7% 24.9% 5.0% direct: 9.1% skip:25.7% L0:50.0% L1:37.1% BI:12.8%
x264 [info]: 8x8 transform intra:76.9% inter:53.9%
x264 [info]: direct mvs spatial:97.4% temporal:2.6%
x264 [info]: coded y,uvDC,uvAC intra: 78.5% 95.2% 92.4% inter: 25.9% 51.7% 38.3%
x264 [info]: i16 v,h,dc,p: 52% 13% 6% 29%
x264 [info]: i8 v,h,dc,ddl,ddr,vr,hd,vl,hu: 12% 9% 15% 9% 11% 11% 10% 11% 12%
x264 [info]: i4 v,h,dc,ddl,ddr,vr,hd,vl,hu: 14% 11% 19% 7% 11% 10% 9% 8% 10%
x264 [info]: i8c dc,h,v,p: 62% 13% 11% 15%
x264 [info]: Weighted P-Frames: Y:2.3% UV:1.6%
x264 [info]: ref P L0: 38.5% 5.4% 21.4% 7.5% 7.5% 4.7% 5.1% 2.3% 2.6% 1.7% 2.0% 1.4% 0.0% 0.0%
x264 [info]: ref B L0: 60.6% 14.6% 7.8% 4.5% 3.2% 2.8% 2.7% 1.5% 1.2% 0.8% 0.3%
x264 [info]: ref B L1: 92.4% 7.6%
x264 [info]: kb/s:4489.66

x264 [total]: encoded 127924 frames, 10.02 fps, 4489.66 kb/s
...5489681
</div>
</div>

Трекер:  [ 16-Июл-2018 14:30 ]

  

Скачать .torrent

Размер .torrent файла 11 KB


Размер: 4.2 GB
Хэш (hash) релиза: 7d437914a094442a2a29e66924113dbeb01a9877
Подписка на обновления:

Торренты, похожие на Смотри по сторонам Better Watch Out скачать торрент

Форум Название Автор Размер S L Добавлен
Зарубежные фильмы до 2016 ·%· Смотри по сторонам / Better Watch Out (Крис Пековер / Chris Peckover) [2016, Австралия, США, ужасы, триллер, BDRemux 1080p] Dub (iTunes) + VO (BadBajo) + Sub Eng + Original Eng Galfimbul 1513978234414.1 GB 0 0 1531740671

14:31

16-Июл-18

Зарубежные фильмы 2016-2018 (Новинки зарубежного кино) ·%· Смотри по сторонам / Better Watch Out (2016) BDRip 720p от HELLYWOOD | iTunes Galfimbul 30828097682.87 GB 0 0 1531377610

09:40

12-Июл-18

Зарубежные фильмы 2016-2018 (Новинки зарубежного кино) ·%· Смотри по сторонам / Better Watch Out (2016) BDRip | iTunes Galfimbul 15736528761.47 GB 0 0 1531330245

20:30

11-Июл-18

Зарубежные фильмы 2016-2018 (Новинки зарубежного кино) ·%· Смотри по сторонам / Better Watch Out (2016) BDRip-AVC | iTunes Galfimbul 21451634372 GB 0 0 1531330233

20:30

11-Июл-18

Зарубежные фильмы 2016-2018 (Новинки зарубежного кино) ·%· Смотри по сторонам / Better Watch Out (2016) BDRip 720p | iTunes Galfimbul 40091132913.73 GB 0 0 1531330222

20:30

11-Июл-18

Зарубежные фильмы 2016-2018 (Новинки зарубежного кино) ·%· Смотри по сторонам / Better Watch Out (2016) BDRip 1080p | iTunes Galfimbul 70085224706.53 GB 0 0 1531330210

20:30

11-Июл-18

Зарубежные фильмы 2016-2018 (Новинки зарубежного кино) ·· Смотри по сторонам / Better Watch Out (Крис Пековер) [2016 г., ужасы, триллер, комедия, HDRip] MVO | Синема УС Galfimbul 14592081921.36 GB 0 0 1512034197

12:29

30-Ноя-17

Зарубежные фильмы 2016-2018 (Новинки зарубежного кино) ·%· Смотри по сторонам / Лучше берегись / Better Watch Out (2016) BDRip-AVC от OlLanDGroup | iTunes Galfimbul 15228441211.42 GB 0 0 1531590011

20:40

14-Июл-18

Зарубежные фильмы 2016-2018 (Новинки зарубежного кино) ·%· Смотри по сторонам / Лучше берегись / Better Watch Out (Крис Пековер / Chris Peckover) [2016, Австралия, США, ужасы, триллер, BDRip] Dub (iTunes) Galfimbul 15629250561.46 GB 0 0 1531553414

10:30

14-Июл-18

Зарубежные фильмы 2016-2018 (Новинки зарубежного кино) ·%· Смотри по сторонам / Лучше берегись / Better Watch Out (2016) HDRip от Scarabey | iTunes Galfimbul 15860654081.48 GB 0 0 1531502416

20:20

13-Июл-18

Зарубежные фильмы 2016-2018 (Новинки зарубежного кино) ·%· Смотри по сторонам / Лучше берегись / Better Watch Out (2016) BDRip от ExKinoRay | iTunes Galfimbul 15255876441.42 GB 0 0 1531473607

12:20

13-Июл-18

Зарубежные фильмы 2016-2018 (Новинки зарубежного кино) ·%· Смотри по сторонам / Лучше берегись / Better Watch Out (2016) BDRip от MegaPeer | iTunes Galfimbul 781310122745 MB 0 0 1531382406

11:00

12-Июл-18

Зарубежные фильмы 2016-2018 (Новинки зарубежного кино) ·· Смотри по сторонам (Лучше берегись) / Better Watch Out (Крис Пековер) [2016, Триллер, Комедия, Ужасы, BDRip 720p] Galfimbul 30367435322.83 GB 0 0 1516385465

21:11

19-Янв-18

Зарубежные фильмы 2016-2018 (Новинки зарубежного кино) ·· Смотри по сторонам (Лучше берегись) / Better Watch Out (Крис Пековер) [2016, Триллер, Комедия, Ужасы, HDRip] Galfimbul 14375649281.34 GB 0 0 1516385438

21:10

19-Янв-18

Зарубежные фильмы 2016-2018 (Новинки зарубежного кино) ·· Смотри по сторонам (Лучше берегись) / Better Watch Out (Крис Пековер) [2016, Триллер, Комедия, Ужасы, BDRip 1080p] Galfimbul 83180820367.75 GB 0 0 1512405612

19:40

4-Дек-17

Зарубежные фильмы 2016-2018 (Новинки зарубежного кино) ·· Смотри по сторонам (Лучше берегись) / Better Watch Out (Крис Пековер) [2016, Триллер, Комедия, Ужасы, WEB-DL 1080p] BadBajo Galfimbul 35531987463.31 GB 0 0 1507872014

08:20

13-Окт-17

Еще никто не оставлял запись к записи скачать торрент Смотри по сторонам Better Watch Out . Будь первым!

!Обратная связь