Sword Art Online: Fatal Bullet [v 1.1.2 + DLC] (2018) PC | RePack от FitGirl | Deadpool 2 complete | U-prince The Series: ...

Скачать через торрент Убийство, моя дорогая Это убийство, моя милочка Фильм бесплатно в хорошем качестве torrent

Скачивайте на UnionPeer.org фильмы через торрент без регистрации. Новинки кино в хорошем качестве через торрент. На UnionPeer.org можно скачать через торрент фильмы 2014 и 2015 годов. Самые новые фильмы.

Скачать торрент Убийство, моя дорогая Это убийство, моя милочка бесплатно через .torrent фильм мультфильм сериал

Статистика раздачи
Размер:  7.61 GB   |    Зарегистрирован:  1 месяц 1 день   |    .torrent скачан:  17 раз   |   
Раздают:  1  
   
загрузка...
 
Автор Сообщение

Galfimbul

avatar Galfimbul


Убийство, моя дорогая / Это убийство, моя милочка / Murder, My Sweet
Год выпуска: 1944
Страна: США
Жанр: триллер, драма, нуар
Продолжительность: 01:35:26
Перевод 1: Авторский (одноголосый закадровый) Алексей Медведев
Перевод 2: Авторский (одноголосый закадровый) Сергей Кузнецов
Оригинальная аудиодорожка: Английская
Субтитры: Русские (Vadmamed), английские
Режиссер: Эдвард Дмитрык / Edward Dmytryk
В ролях: Дик Пауэлл, Клер Тревор, Энн Ширли, Отто Крюгер, Майк Мазурки, Майлз Мандер, Дуглас Уолтон, Дональд Дуглас, Ральф Хэролд, Эстер Ховард
Описание:
Частному сыщику Филипу Марлоу, долго сидевшему без работы, неожиданно привалило сначала одно дело - разыскать подружку вышедшего на свободу уголовника, затем другое - некий светский тип предлагает за так заработать крупную сумму денег, и в конце концов его наняли для розыска похищенной драгоценности.
Фильм снят по мотивам романа Рэймонда Чандлера "Прощай, моя красавица". Сценарист кое-где применил ножницы и клейкую ленту, однако оставил основную сюжетную линию и иронический стиль текста романа.
В 1975 году вышел римейк "Farewell, My Lovely" с Митчумом в роли Марлоу.
За дорожки спасибо Чарли Чинк и JayBee.

| | Сэмпл
Качество: BDRip 720p (HaB)
Контейнер: MKV
Видео: x264, 982x720 (1.36:1), 23.976 fps, 10333 kbps
Аудио 1: Русский AC3 2.0, 48 kHz, 192 kbps
Аудио 2: Русский AC3 2.0, 48 kHz, 192 kbps
Аудио 3: Английский FLAC 2.0, 48 kHz, 620 kbps, 24-bit
Аудио 4: Английский Vorbis 2.0, 48 kHz, 80 kbps - Комментарии
Формат субтитров: softsub (SRT)
<div class="sp-wrap">
<div class="sp-head folded">nfo</div>
<div class="sp-body">RELEASE NAME....: Murder.My.Sweet.1944.720p.BluRay.AC3.x264-HaB
RELEASE SIZE....: 7.11 GiB
RUNTIME.........: 1h 35mn
VIDEO CODEC... .: x264, crf, [email protected]
FRAMERATE.......: 23.976 fps
VIDEO BITRATE...: 10.1 Mbps
RESOLUTION......: 982x720
AUDIO.1.........: English, AC3 2.0, 256 Kbps
COMMENTARY......: by Author Alain Silver
SUBTiTLES.......: English SDH
CHAPTERS........: Included
SOURCE..........: 1080p Blu-ray AVC DTS-HD MA 2.0-PCH
Warner Archive Collection - 2015
General
Unique ID : 140360695088777626561788880885739347378 (0x69987C8FC34FD200769AF479C2FADDB2)
Complete name : Murder.My.Sweet.1944.720p.BluRay.AC3.x264-HaB.mkv
Format : Matroska
Format version : Version 2
File size : 7.61 GiB
Duration : 1 h 35 min
Overall bit rate mode : Variable
Overall bit rate : 11.4 Mb/s
Movie name : Murder, My Sweet / Это убийство, моя милочка (1944) – RuTracker
Encoded date : UTC 2018-07-13 22:02:26
Writing application : mkvmerge v25.0.0 ('Prog Noir') 64-bit
Writing library : libebml v1.3.6 + libmatroska v1.4.9
Cover : Yes
Attachments : cover.jpg

Video
ID : 1
Format : AVC
Format/Info : Advanced Video Codec
Format profile : [email protected]
Format settings : CABAC / 11 Ref Frames
Format settings, CABAC : Yes
Format settings, RefFrames : 11 frames
Codec ID : V_MPEG4/ISO/AVC
Duration : 1 h 35 min
Bit rate : 10.3 Mb/s
Width : 982 pixels
Height : 720 pixels
Display aspect ratio : 4:3
Frame rate mode : Constant
Frame rate : 23.976 FPS
Color space : YUV
Chroma subsampling : 4:2:0
Bit depth : 8 bits
Scan type : Progressive
Bits/(Pixel*Frame) : 0.610
Stream size : 6.89 GiB (91%)
Title : Murder.My.Sweet.1944.720p.BluRay.AC3.x264-HaB
Writing library : x264 core 146 r2538kMod 121396c
Encoding settings : cabac=1 / ref=11 / deblock=1:-3:-3 / analyse=0x3:0x133 / me=tesa / subme=11 / psy=1 / fade_compensate=0.00 / psy_rd=0.95:0.00 / mixed_ref=1 / me_range=16 / chroma_me=1 / trellis=2 / 8x8dct=1 / cqm=0 / deadzone=21,11 / fast_pskip=0 / chroma_qp_offset=-2 / threads=18 / lookahead_threads=4 / sliced_threads=0 / nr=0 / decimate=0 / interlaced=0 / bluray_compat=0 / constrained_intra=0 / fgo=0 / bframes=16 / b_pyramid=2 / b_adapt=2 / b_bias=0 / direct=3 / weightb=1 / open_gop=0 / weightp=2 / keyint=250 / keyint_min=23 / scenecut=40 / intra_refresh=0 / rc=crf / mbtree=0 / crf=18.6000 / qcomp=0.65 / qpmin=0 / qpmax=69 / qpstep=4 / ip_ratio=1.30 / pb_ratio=1.20 / aq=3:0.75
Language : English
Default : Yes
Forced : No

Audio #1
ID : 2
Format : AC-3
Format/Info : Audio Coding 3
Codec ID : A_AC3
Duration : 1 h 35 min
Bit rate mode : Constant
Bit rate : 192 kb/s
Channel(s) : 2 channels
Channel positions : Front: L R
Sampling rate : 48.0 kHz
Frame rate : 31.250 FPS (1536 SPF)
Bit depth : 16 bits
Compression mode : Lossy
Stream size : 131 MiB (2%)
Title : AVO – Алексей Медведев
Language : Russian
Service kind : Complete Main
Default : Yes
Forced : No

Audio #2
ID : 3
Format : AC-3
Format/Info : Audio Coding 3
Codec ID : A_AC3
Duration : 1 h 35 min
Bit rate mode : Constant
Bit rate : 192 kb/s
Channel(s) : 2 channels
Channel positions : Front: L R
Sampling rate : 48.0 kHz
Frame rate : 31.250 FPS (1536 SPF)
Bit depth : 16 bits
Compression mode : Lossy
Stream size : 131 MiB (2%)
Title : AVO – Сергей Кузнецов
Language : Russian
Service kind : Complete Main
Default : No
Forced : No

Audio #3
ID : 4
Format : FLAC
Format/Info : Free Lossless Audio Codec
Codec ID : A_FLAC
Duration : 1 h 35 min
Bit rate mode : Variable
Bit rate : 620 kb/s
Channel(s) : 2 channels
Channel positions : Front: L R
Sampling rate : 48.0 kHz
Frame rate : 11.719 FPS (4096 SPF)
Bit depth : 24 bits
Stream size : 423 MiB (5%)
Title : Original
Writing library : libFLAC 1.3.2 (UTC 2017-01-01)
Language : English
Default : No
Forced : No

Audio #4
ID : 5
Format : Vorbis
Format settings, Floor : 1
Codec ID : A_VORBIS
Duration : 1 h 35 min
Bit rate mode : Variable
Bit rate : 80.0 kb/s
Channel(s) : 2 channels
Sampling rate : 48.0 kHz
Frame rate : 82.240 FPS (584 SPF)
Compression mode : Lossy
Stream size : 50.6 MiB (1%)
Title : Commentary with Author Alain Silver
Writing library : aoTuV
Language : English
Default : No
Forced : No

Text #1
ID : 6
Format : UTF-8
Codec ID : S_TEXT/UTF8
Codec ID/Info : UTF-8 Plain Text
Duration : 1 h 34 min
Bit rate : 129 b/s
Count of elements : 1285
Stream size : 89.9 KiB (0%)
Title : Vadmamed
Language : Russian
Default : No
Forced : No

Text #2
ID : 7
Format : UTF-8
Codec ID : S_TEXT/UTF8
Codec ID/Info : UTF-8 Plain Text
Duration : 1 h 33 min
Bit rate : 80 b/s
Count of elements : 1274
Stream size : 55.1 KiB (0%)
Language : English
Default : No
Forced : No

Text #3
ID : 8
Format : UTF-8
Codec ID : S_TEXT/UTF8
Codec ID/Info : UTF-8 Plain Text
Duration : 1 h 34 min
Bit rate : 81 b/s
Count of elements : 1306
Stream size : 56.4 KiB (0%)
Title : SDH
Language : English
Default : No
Forced : No

Menu
00:00:00.000 : en:01. Third-Degree Credits
00:02:33.153 : en:02. Hired by Moose
00:05:36.628 : en:03. Flap at Florian's
00:08:38.476 : en:04. Jessie's Place
00:13:09.497 : en:05. Marriot's Rendezvous
00:17:10.947 : en:06. Phantoms in the Dark
00:20:32.940 : en:07. Watch Your Step
00:22:42.278 : en:08. Lady with an Interest
00:25:51.884 : en:09. Mrs. Grayle's Trust
00:33:00.979 : en:10. Competing Offers
00:37:02.512 : en:11. Old Psychological Tricks
00:41:33.658 : en:12. Stranglehold
00:45:21.677 : en:13. Crazy Coked-up Dream
00:50:05.461 : en:14. Against Doctor's Orders
00:55:19.233 : en:15. Take My Friend
00:57:38.205 : en:16. Protective Daughter
01:01:10.458 : en:17. Which Side Anybody's On
01:04:39.667 : en:18. His Desirable Wife
01:09:21.741 : en:19. Pretty Good Guesser
01:12:19.335 : en:20. Helen's Request
01:18:40.633 : en:21. Visited by Moose
01:22:21.436 : en:22. Femme Fatale
01:26:29.601 : en:23. Couple of Mugs
01:30:03.189 : en:24. Couldn't Let Her Go
01:31:50.463 : en:25. Her Kind of Face</div>
</div>

Трекер:  [ 14-Июл-2018 16:30 ]

  

Скачать .torrent

Размер .torrent файла 38 KB


Размер: 7.61 GB
Хэш (hash) релиза: 9d015669b218ccb53e000b80a8c4df8c1af2f8ea
Подписка на обновления:

Торренты, похожие на Убийство, моя дорогая Это убийство, моя милочка скачать торрент

Форум Название Автор Размер S L Добавлен
Зарубежные фильмы до 2016 ·%· Убийство, моя дорогая / Это убийство, моя милочка / Murder, My Sweet (Эдвард Дмитрык / Edward Dmytryk) [1944, США, триллер, драма, нуар, BDRemux 1080p] 2x AVO (Медведев, Кузнецов) + Original Eng + Sub (Rus, Eng) Galfimbul 2704327566925.19 GB 0 0 1531571450

15:30

14-Июл-18

Еще никто не оставлял запись к записи скачать торрент Убийство, моя дорогая Это убийство, моя милочка . Будь первым!

!Обратная связь