Watch now! | Leslie Langtry | Jihan Audy - Wegah Kelangan

Скачать через торрент Местные The Domestics Фильм бесплатно в хорошем качестве torrent

Скачивайте на UnionPeer.org фильмы через торрент без регистрации. Новинки кино в хорошем качестве через торрент. На UnionPeer.org можно скачать через торрент фильмы 2014 и 2015 годов. Самые новые фильмы.

Скачать торрент Местные The Domestics бесплатно через .torrent фильм мультфильм сериал

Статистика раздачи
Размер:  7.23 GB   |    Зарегистрирован:  2 месяца 10 дней   |    .torrent скачан:  81 раз   |   
Раздают:  1  
   
загрузка...
 
Автор Сообщение

Galfimbul

avatar Galfimbul


Местные /The Domestics

Год выхода: 2018
Жанр: Ужасы, триллер
Режиссер: Майк П. Нельсон
В ролях: Тайлер Хэклин, Кейт Босворт, Соноя Мидзуно, Давид Дастмалчян, Лэнс Реддик, Майк П. Нельсон, Дэна Гурье, Лора Кайюэтт, Джефф Чейз, Брэд Лелэнд

О фильме: После постигшего Америку апокалиптического события Средний Запад разделён на территории банд. Находившаяся до катаклизма в процессе развода семейная пара пытается добраться через опасную местность до родителей жены, в Милуоки.


Страна: США
Студия: Hollywood Gang Productions
Продолжительность: 01:35:17
Перевод: Профессиональный, многоголосый, закадровый ~ HDrezka Studio

Файл
Кодек: MPEG-4 AVC
Качество: WEBRip 1080p | Amazon ~ The.Domestics.2018.1080p.AMZN.WEBRip.DDP5.1.x264-NTG
Видео: 1920x800, 10000kb/s, 23.976fps
Звук:
1] 192kb/s, 2ch, 48000kHz, AC3 [RUS] | HDrezka Studio
2] 640kb/s, 6ch, 48000kHz, AC3 [ENG] | Английский оригинал
Субтитры: Английские

РЕКЛАМА ОТСУТСТВУЕТ
Формат : Matroska
Версия формата : Version 4 / Version 2
Размер файла : 7,23 Гбайт
Продолжительность : 1 ч. 35 м.
Общий поток : 10,9 Мбит/сек
Название фильма : ~V ad~
Дата кодирования : UTC 2018-07-12 23:16:03
Программа кодирования : mkvmerge v8.3.0 ('Over the Horizon') 64bit
Библиотека кодирования : libebml v1.3.1 + libmatroska v1.4.2

Видео
Идентификатор : 1
Формат : AVC
Формат/Информация : Advanced Video Codec
Профиль формата : [email protected]
Настройки формата : CABAC / 4 Ref Frames
Параметр CABAC формата : Да
Параметр RefFrames формата : 4 кадра
Идентификатор кодека : V_MPEG4/ISO/AVC
Продолжительность : 1 ч. 35 м.
Битрейт : 10,0 Мбит/сек
Ширина : 1920 пикселей
Высота : 800 пикселей
Соотношение сторон : 2,40:1
Режим частоты кадров : Постоянный
Частота кадров : 23,976 (24000/1001) кадра/сек
Цветовое пространство : YUV
Субдискретизация насыщенности : 4:2:0
Битовая глубина : 8 бит
Тип развёртки : Прогрессивная
Бит/(Пиксели*Кадры) : 0.272
Размер потока : 6,67 Гбайт (92%)
Заголовок : deadconnelly83
Язык : English
Default : Да
Forced : Нет
Цветовой диапазон : Limited
Основные цвета : BT.709
Характеристики трансфера : BT.709
Коэффициенты матрицы : BT.709

Аудио #1
Идентификатор : 2
Формат : AC-3
Формат/Информация : Audio Coding 3
Идентификатор кодека : A_AC3
Продолжительность : 1 ч. 35 м.
Вид битрейта : Постоянный
Битрейт : 192 Кбит/сек
Каналы : 2 канала
Расположение каналов : Front: L R
Частота : 48,0 КГц
Частота кадров : 31,250 кадров/сек (1536 SPF)
Битовая глубина : 16 бит
Метод сжатия : С потерями
Размер потока : 131 Мбайт (2%)
Заголовок : HDRezka Studio
Язык : Russian
Default : Да
Forced : Да

Аудио #2
Идентификатор : 3
Формат : E-AC-3
Формат/Информация : Enhanced Audio Coding 3
Идентификатор кодека : A_EAC3
Продолжительность : 1 ч. 35 м.
Вид битрейта : Постоянный
Битрейт : 640 Кбит/сек
Каналы : 6 каналов
Расположение каналов : Front: L C R, Side: L R, LFE
Частота : 48,0 КГц
Частота кадров : 187,500 кадров/сек (256 SPF)
Метод сжатия : С потерями
Размер потока : 436 Мбайт (6%)
Заголовок : Original
Язык : English
Default : Нет
Forced : Нет

Текст
Идентификатор : 4
Формат : UTF-8
Идентификатор кодека : S_TEXT/UTF8
Идентификатор кодека/Информация : UTF-8 Plain Text
Продолжительность : 1 ч. 31 м.
Битрейт : 44 бит/сек
ElementCount : 1006
Размер потока : 30,0 Кбайт (0%)
Заголовок : SDH
Язык : English
Default : Нет
Forced : Нет
[/b]
Источник http://BlaTor.org

Трекер:  [ 13-Июл-2018 03:20 ]

  

Скачать .torrent

Размер .torrent файла 18 KB


Размер: 7.23 GB
Хэш (hash) релиза: 2a3ee69b03450b3dccffaefa06cab65cf7e47070
Подписка на обновления:

Еще никто не оставлял запись к записи скачать торрент Местные The Domestics . Будь первым!

!Обратная связь