KIKA en direct | Рэмпейдж / Rampage (2018) WEB-DLRip 1080p | D Подробнее... Залито: 19-06-2018 09:40 (1427 просмотров) Рэмпейдж / Rampage (2018) WEB-DLRip 1080p | D Новинки зарубежного кино Приматолог Дэвис Окойи предпочитает держаться подальше от людей и дружит с Джорджем, удивительно умным альфа-самцом — гориллой, которого он воспитывал с самого рождения. Но вышедший из-под контроля генетический эксперимент превращает послушную обезьяну в яростного монстра. Более того, вскоре обнаруживается,... Раздают: 10 Качают: 0 Размер: 4.31GB | Real Talk S4 Ep143 Bonang Matheba

Скачать через торрент Местные The Domestics Фильм бесплатно в хорошем качестве torrent

Скачивайте на UnionPeer.org фильмы через торрент без регистрации. Новинки кино в хорошем качестве через торрент. На UnionPeer.org можно скачать через торрент фильмы 2014 и 2015 годов. Самые новые фильмы.

Скачать торрент Местные The Domestics бесплатно через .torrent фильм мультфильм сериал

Статистика раздачи
Размер:  2.65 GB   |    Зарегистрирован:  5 дней   |    .torrent скачан:  80 раз   |   
Раздают:  1  
   
загрузка...
 
Автор Сообщение

Galfimbul

avatar Galfimbul


Местные /The Domestics

Год выхода: 2018
Жанр: Ужасы, триллер
Режиссер: Майк П. Нельсон
В ролях: Тайлер Хэклин, Кейт Босворт, Соноя Мидзуно, Давид Дастмалчян, Лэнс Реддик, Майк П. Нельсон, Дэна Гурье, Лора Кайюэтт, Джефф Чейз, Брэд Лелэнд

О фильме: После постигшего Америку апокалиптического события Средний Запад разделён на территории банд. Находившаяся до катаклизма в процессе развода семейная пара пытается добраться через опасную местность до родителей жены, в Милуоки.


Страна: США
Студия: Hollywood Gang Productions
Продолжительность: 01:35:17
Перевод: Профессиональный, многоголосый, закадровый ~ HDrezka Studio

Файл
Кодек: MPEG-4 AVC
Качество: WEBRip 720p
Видео: 1280x534, 3404kb/s, 23.976fps
Звук:
1] 192kb/s, 2ch, 48000kHz, AC3 [RUS] | HDrezka Studio
2] 384kb/s, 6ch, 48000kHz, AC3 [ENG] | Английский оригинал
Субтитры: Английские

РЕКЛАМА ОТСУТСТВУЕТ
Формат : Matroska
Версия формата : Version 4 / Version 2
Размер файла : 2,65 Гбайт
Продолжительность : 1 ч. 35 м.
Общий поток : 3982 Кбит/сек
Дата кодирования : UTC 2018-07-12 21:41:29
Программа кодирования : mkvmerge v8.3.0 ('Over the Horizon') 64bit
Библиотека кодирования : libebml v1.3.1 + libmatroska v1.4.2

Видео
Идентификатор : 1
Формат : AVC
Формат/Информация : Advanced Video Codec
Профиль формата : [email protected]
Настройки формата : CABAC / 9 Ref Frames
Параметр CABAC формата : Да
Параметр RefFrames формата : 9 кадров
Идентификатор кодека : V_MPEG4/ISO/AVC
Продолжительность : 1 ч. 35 м.
Битрейт : 3404 Кбит/сек
Ширина : 1280 пикселей
Высота : 534 пикселя
Соотношение сторон : 2,40:1
Режим частоты кадров : Постоянный
Частота кадров : 23,976 (24000/1001) кадра/сек
Цветовое пространство : YUV
Субдискретизация насыщенности : 4:2:0
Битовая глубина : 8 бит
Тип развёртки : Прогрессивная
Бит/(Пиксели*Кадры) : 0.208
Размер потока : 2,27 Гбайт (85%)
Библиотека кодирования : x264 core 155 r2893 b00bcaf
Настройки программы : cabac=1 / ref=9 / deblock=1:-1:-1 / analyse=0x3:0x133 / me=umh / subme=9 / psy=1 / psy_rd=1.00:0.15 / mixed_ref=1 / me_range=24 / chroma_me=1 / trellis=2 / 8x8dct=1 / cqm=0 / deadzone=21,11 / fast_pskip=1 / chroma_qp_offset=-3 / threads=6 / lookahead_threads=1 / sliced_threads=0 / nr=0 / decimate=1 / interlaced=0 / bluray_compat=0 / constrained_intra=0 / bframes=6 / b_pyramid=2 / b_adapt=2 / b_bias=0 / direct=3 / weightb=1 / open_gop=0 / weightp=2 / keyint=240 / keyint_min=24 / scenecut=40 / intra_refresh=0 / rc_lookahead=60 / rc=crf / mbtree=1 / crf=17.0 / qcomp=0.60 / qpmin=0 / qpmax=69 / qpstep=4 / vbv_maxrate=62500 / vbv_bufsize=78125 / crf_max=0.0 / nal_hrd=none / filler=0 / ip_ratio=1.40 / aq=1:1.00
Язык : English
Default : Да
Forced : Нет
Цветовой диапазон : Limited
Основные цвета : BT.709
Характеристики трансфера : BT.709
Коэффициенты матрицы : BT.709

Аудио #1
Идентификатор : 2
Формат : AC-3
Формат/Информация : Audio Coding 3
Идентификатор кодека : A_AC3
Продолжительность : 1 ч. 35 м.
Вид битрейта : Постоянный
Битрейт : 192 Кбит/сек
Каналы : 2 канала
Расположение каналов : Front: L R
Частота : 48,0 КГц
Частота кадров : 31,250 кадров/сек (1536 SPF)
Битовая глубина : 16 бит
Метод сжатия : С потерями
Задержка видео : -5 мс.
Размер потока : 131 Мбайт (5%)
Заголовок : HDRezka Studio
Язык : Russian
Default : Да
Forced : Да

Аудио #2
Идентификатор : 3
Формат : AC-3
Формат/Информация : Audio Coding 3
Идентификатор кодека : A_AC3
Продолжительность : 1 ч. 35 м.
Вид битрейта : Постоянный
Битрейт : 384 Кбит/сек
Каналы : 6 каналов
Расположение каналов : Front: L C R, Side: L R, LFE
Частота : 48,0 КГц
Частота кадров : 31,250 кадров/сек (1536 SPF)
Битовая глубина : 16 бит
Метод сжатия : С потерями
Задержка видео : -5 мс.
Размер потока : 262 Мбайт (10%)
Заголовок : Original
Язык : English
Default : Нет
Forced : Нет

Текст
Идентификатор : 4
Формат : UTF-8
Идентификатор кодека : S_TEXT/UTF8
Идентификатор кодека/Информация : UTF-8 Plain Text
Продолжительность : 1 ч. 31 м.
Битрейт : 44 бит/сек
ElementCount : 1006
Размер потока : 30,0 Кбайт (0%)
Заголовок : SDH
Язык : English
Default : Нет
Forced : Нет
Источник http://BlaTor.org

Трекер:  [ 13-Июл-2018 01:40 ]

  

Скачать .torrent

Размер .torrent файла 14 KB


Размер: 2.65 GB
Хэш (hash) релиза: 38fb0a3aa3dd3b8b6fd01b71775a807ca41654b5
Подписка на обновления:

Еще никто не оставлял запись к записи скачать торрент Местные The Domestics . Будь первым!

!Обратная связь