Upload / Sign In | Solo: A Star Wars Story | Vol.1 chapter 127.5 : The victor has been decided! Part 2

Скачать через торрент музыку бесплатно без регистрации torrent

Статистика раздачи
Размер:  239 MB   |    Зарегистрирован:  6 дней   |    .torrent скачан:  32 раза   |   
Раздают:  1  
   
загрузка...
 
Автор Сообщение

Galfimbul

avatar Galfimbul


Natasha & GooSee • Наташа и Гуу-Сии / Most • Мост

Жанр: Trance, Progressive Trance
Носитель: CD
Страна-производитель диска (релиза): USA
Год издания: 1996
Аудиокодек: FLAC (*.flac)
Тип рипа: image+.cue
Битрейт аудио: lossless
Продолжительность: 40:23
Источник (релизер): собственный рип
Наличие сканов в содержимом раздачи: да
Треклист:
01. 7-7-7-Ya! • 7-7-7-Я!
02. Wake Up, Wake Up! • Проснись, проснись!
03. Scary March! • Страшный марш!
04. Goo-See-Ga-Ga-Ga! • Гуу-Сии - Га-га-га!
05. Winds Of Changes! • Ветры перемен!
06. Have More Joy! • Радуйся!
07. Save His Life! • Спаси его жизнь!
08. Let It Be! • Пусть будет так!
090 We Came Here... • Мы пришлю сюда...
10 Dream? • Мечта?
Exact Audio Copy V1.3 from 2. September 2016

Отчёт EAC об извлечении, выполненном 12. июля 2018, 19:06

Natasha & GooSee / Most

Дисковод: ATAPI iHAS122 F Adapter: 1 ID: 0

Режим чтения : ДостоверностьИспользование точного потока : ДаОтключение кэша аудио : ДаИспользование указателей C2 : Нет

Коррекция смещения при чтении : 6Способность читать области Lead-in и Lead-out : НетЗаполнение пропущенных сэмплов тишиной : ДаУдаление блоков с тишиной в начале и конце : НетПри вычислениях CRC использовались нулевые сэмплы : ДаИнтерфейс : Встроенный Win32-интерфейс для Win NT/2000

Выходной формат : Пользовательский кодировщикВыбранный битрейт : 128 kBit/sКачество : ВысокийДобавление ID3-тега : НетУтилита сжатия : C:\Program Files\Exact Audio Copy\Flac\flac.exe

TOC извлечённого CD

Трек | Старт | Длительность | Начальный сектор | Конечный сектор --------------------------------------------------------------------- 1 | 0:00.00 | 4:25.12 | 0 | 19886 2 | 4:25.12 | 4:38.25 | 19887 | 40761 3 | 9:03.37 | 2:18.63 | 40762 | 51174 4 | 11:22.25 | 3:33.35 | 51175 | 67184 5 | 14:55.60 | 5:32.62 | 67185 | 92146 6 | 20:28.47 | 3:48.28 | 92147 | 109274 7 | 24:17.00 | 3:39.22 | 109275 | 125721 8 | 27:56.22 | 3:48.43 | 125722 | 142864 9 | 31:44.65 | 4:43.32 | 142865 | 164121 10 | 36:28.22 | 3:55.25 | 164122 | 181771

Характеристики диапазона извлечения и сообщения об ошибках

Выбранный диапазон

Имя файла E:\Natasha & GooSee - Most.wav

Пиковый уровень 100.0 % Скорость извлечения 7.7 X Качество диапазона 99.9 % CRC теста F270B4A4 CRC копии F270B4A4 Копирование... OK

Ошибок не произошло

Конец отчёта

---- CUETools DB Plugin V2.1.6

[CTDB TOCID: h7TWg_l4o4o8tb4RxiW90aONbVo-] disk not present in databaseSubmit result: h7TWg_l4o4o8tb4RxiW90aONbVo- has been uploaded

------------------------------------------------------------

Exact Audio Copy V1.3 from 2. September 2016

Отчёт EAC об извлечении, выполненном 12. июля 2018, 19:27

Natasha & GooSee / Most

Дисковод: ATAPI iHAS122 F Adapter: 1 ID: 0

Режим чтения : ДостоверностьИспользование точного потока : ДаОтключение кэша аудио : ДаИспользование указателей C2 : Нет

Коррекция смещения при чтении : 6Способность читать области Lead-in и Lead-out : НетЗаполнение пропущенных сэмплов тишиной : ДаУдаление блоков с тишиной в начале и конце : НетПри вычислениях CRC использовались нулевые сэмплы : ДаИнтерфейс : Встроенный Win32-интерфейс для Win NT/2000

Выходной формат : Пользовательский кодировщикВыбранный битрейт : 896 kBit/sКачество : ВысокийДобавление ID3-тега : НетУтилита сжатия : C:\Program Files\Exact Audio Copy\Flac\flac.exeДополнительные параметры : -V -8 -T "Date=%year%" -T "Genre=%genre%" %source%

TOC извлечённого CD

Трек | Старт | Длительность | Начальный сектор | Конечный сектор --------------------------------------------------------------------- 1 | 0:00.00 | 4:25.12 | 0 | 19886 2 | 4:25.12 | 4:38.25 | 19887 | 40761 3 | 9:03.37 | 2:18.63 | 40762 | 51174 4 | 11:22.25 | 3:33.35 | 51175 | 67184 5 | 14:55.60 | 5:32.62 | 67185 | 92146 6 | 20:28.47 | 3:48.28 | 92147 | 109274 7 | 24:17.00 | 3:39.22 | 109275 | 125721 8 | 27:56.22 | 3:48.43 | 125722 | 142864 9 | 31:44.65 | 4:43.32 | 142865 | 164121 10 | 36:28.22 | 3:55.25 | 164122 | 181771

Характеристики диапазона извлечения и сообщения об ошибках

Выбранный диапазон

Имя файла E:\Natasha & GooSee - Most.wav

Пиковый уровень 100.0 % Скорость извлечения 7.5 X Качество диапазона 99.9 % CRC теста F270B4A4 CRC копии F270B4A4 Копирование... OK

Ошибок не произошло

Конец отчёта

---- CUETools DB Plugin V2.1.6

[CTDB TOCID: h7TWg_l4o4o8tb4RxiW90aONbVo-] foundSubmit result: already submittedTrack | CTDB Status 1 | (1/1) Accurately ripped 2 | (1/1) Accurately ripped 3 | (1/1) Accurately ripped 4 | (1/1) Accurately ripped 5 | (1/1) Accurately ripped 6 | (1/1) Accurately ripped 7 | (1/1) Accurately ripped 8 | (1/1) Accurately ripped 9 | (1/1) Accurately ripped 10 | (1/1) Accurately ripped
"Однажды на одном из таких фестивалей, нас услышала Наталья Андрейченко и предложила принять участие в нашем коллективе в качестве вокалистки. Это был сомнительный пиар ход, но мы согласились. Наташа собиралась возвращаться в Россию, но приезжать просто так было не комильфо – ей нужен был музыкальный проект – свита молодых и красивых друзей. Артур Беркут из группы «Автограф», его американский барабанщик, басист, я со своей зелёной бородой. Это всё создавало большой красивый антураж для известной советской актрисы Натальи Андрейченко. В студии Jerry Fielding мы записали полнометражный альбом. Великолепная студия на Hollywood Hills, где были записаны два саундтрека, которые получили Оскара. Но Наташа, при всей моей любви к ней пела неважно. Ей бы взять для начала хотя бы несколько уроков вокала, но тогда мы об этом не думали и записали как записали. Музыка была очень психоделическая, и нам от Наташи нужны были артистизм и экспрессия, что у неё было в достатке. Проект состоялся, мы вместе в 1995 году вернулись в Москву с альбомом наперевес, однако выступить, к счастью, на Родине нам не удалось. С высоты сегодняшнего дня я понимаю всю несостоятельность данного проекта. Без голоса это ещё можно было как-то представить, но с голосом Наташи это гармоническое построение теряло свою форму." Гермес Зайготт
Промо альбом
Наташа Андрейченко - инструмент голоса
Артур Беркут - клавиши
Тимофей Залупа - ударник
Эдэм Элеш - мандола
Гермес Зайготт - дульсимер, корни звука, флейта
Ури Нола Ша- духовный наставник


Трекер:  [ 13-Июл-2018 00:01 ]

  

Скачать .torrent

Размер .torrent файла 19 KB


Размер: 239 MB
Хэш (hash) релиза: f6cdd7ccd8e63b807747904ed3fb7153f05776a3

Еще никто не оставлял запись к записи скачать торрент . Будь первым!

!Обратная связь