Bebe Neuwirth | VER ANIME | Harry Potter And The Order Of The Phoenix

Скачать через торрент [VIDEO] Лара Крофт: Дилогия Lara Croft Tomb Raider: Dilogy бесплатно русская версия torrent активатор

Статистика раздачи
Размер:  5.89 GB   |    Зарегистрирован:  2 месяца 8 дней   |    .torrent скачан:  14 раз   |   
Раздают:  1  
   
загрузка...
 
Автор Сообщение

Galfimbul

avatar Galfimbul



Лара Крофт: Дилогия / Lara Croft Tomb Raider: Dilogy

Лара Крофт: Расхитительница гробниц / Lara Croft Tomb Raider


Год выпуска: 2001
Страна: США, Германия, Япония, Великобритания / Mutual Film Corporation, Paramount Pictures
Жанр: фэнтези, боевик, триллер, приключения
Продолжительность: 01:40:33
Перевод №1: русский Профессиональный (полное дублирование)
Перевод №2: русский Профессиональный (многоголосый, закадровый) #1
Перевод №3: русский Профессиональный (многоголосый, закадровый) #2
Перевод №4: украинский Профессиональный (многоголосый, закадровый) ICTV
Перевод №5: русский Профессиональный (двухголосый, закадровый) Гланц и Королёва
Перевод №6: русский Авторский (одноголосый, закадровый) Гаврилов
Оригинальная дорожка: Есть
Субтитры: русские (Forced), (Full), английские (Full), (SDH)
Режиссер: Саймон Уэст / Simon West
В ролях: Анджелина Джоли, Джон Войт, Айэйн Глен, Ноа Тейлор, Дэниэл Крэйг, Ричард Джонсон, Крис Барри, Джулиан Райнд-Татт, Лесли Филлипс, Роберт Филлипс и другие .
Описание: Она владеет всеми видами рукопашного боя, стреляет из любых видов оружия и способна выжить в самых экстремальных условиях. Эта девушка — дочь лорда, леди Лара Крофт. Однажды под лестницей она обнаруживает вход в секретную комнату, где находятся старинные часы с удивительным устройством внутри .
Релиз группы

Качество: BDRip / рип с Blu-ray disc 1080p (Custom)
Формат: MP4
Видео кодек: H.264
Аудио кодек: AAC
Видео: 1280x536 AR:2.39 3000 kbps 23.976 fps
Аудио №1: [Russian] 2ch 48 kHz 128 kbps - [Dub] Профессиональный (полное дублирование)
Аудио №2: [Russian] 2ch 48 kHz 128 kbps - [MVO] Профессиональный (многоголосый, закадровый) #1
Аудио №3: [Russian] 2ch 48 kHz 128 kbps - [MVO] Профессиональный (многоголосый, закадровый) #2
Аудио №4: [Ukrainian] 2ch 48 kHz 128 kbps - [MVO] Профессиональный (многоголосый, закадровый) ICTV
Аудио №5: [Russian] 2ch 48 kHz 128 kbps - [DVO] Профессиональный (двухголосый, закадровый) Гланц и Королёва
Аудио №6: [Russian] 2ch 48 kHz 128 kbps - [VO] Авторский (одноголосый, закадровый) Гаврилов
Аудио №7: [English] 2ch 48 kHz 128 kbps - Original
<div class="sp-wrap">
<div class="sp-head folded">Logx264</div>
<div class="sp-body">avs [info]: 1280x536p 1:1 @ 24000/1001 fps (cfr)
x264 [info]: using SAR=1/1
x264 [info]: using cpu capabilities: MMX2 SSE2Fast SSSE3 SSE4.2 AVX FMA3 BMI2 AVX2
x264 [info]: profile High, level 4.1

x264 [info]: frame I:1493 Avg QP:16.92 size: 67321
x264 [info]: frame P:35539 Avg QP:20.33 size: 26763
x264 [info]: frame B:107600 Avg QP:22.09 size: 11238
x264 [info]: consecutive B-frames: 4.2% 6.2% 7.1% 28.8% 9.0% 31.7% 3.6% 8.3% 1.1%
x264 [info]: mb I I16..4: 3.8% 82.8% 13.4%
x264 [info]: mb P I16..4: 0.9% 12.0% 1.3% P16..4: 32.6% 36.8% 9.2% 0.0% 0.0% skip: 7.2%
x264 [info]: mb B I16..4: 0.1% 1.4% 0.1% B16..8: 38.5% 20.1% 2.8% direct: 6.4% skip:30.6% L0:45.7% L1:45.6% BI: 8.7%
x264 [info]: 8x8 transform intra:84.8% inter:66.4%
x264 [info]: direct mvs spatial:97.9% temporal:2.1%
x264 [info]: coded y,uvDC,uvAC intra: 88.2% 66.7% 28.6% inter: 33.7% 17.5% 2.5%
x264 [info]: i16 v,h,dc,p: 18% 18% 6% 58%
x264 [info]: i8 v,h,dc,ddl,ddr,vr,hd,vl,hu: 9% 6% 4% 10% 15% 15% 15% 12% 13%
x264 [info]: i4 v,h,dc,ddl,ddr,vr,hd,vl,hu: 13% 8% 5% 8% 15% 15% 14% 11% 12%
x264 [info]: i8c dc,h,v,p: 31% 32% 20% 18%
x264 [info]: Weighted P-Frames: Y:18.7% UV:12.1%
x264 [info]: ref P L0: 44.9% 9.8% 18.1% 7.7% 5.8% 4.3% 3.5% 2.0% 1.8% 1.7% 0.4% 0.1%
x264 [info]: ref B L0: 72.7% 11.7% 6.0% 3.1% 2.3% 1.8% 1.4% 0.6% 0.3%
x264 [info]: ref B L1: 94.0% 6.0%
x264 [info]: kb/s:2998.35

encoded 144632 frames, 9.63 fps, 2998.35 kb/s
GeneralComplete name : K:\Torrents\Lara Croft Tomb Raider Dilogy.2001-2003.BDRip.x264.1280x\Lara Croft Tomb Raider.2001.BDRip.x264.1280x.rip by Frost O.S.mp4Format : MPEG-4Format profile : 3GPP Release 6 GeneralCodec ID : 3gg6 (isom/3gg6/mp42)File size : 2.75 GiBDuration : 1 h 40 minOverall bit rate mode : VariableOverall bit rate : 3 908 kb/sEncoded date : UTC 2018-07-12 13:39:27Tagged date : UTC 2018-07-12 13:39:27

VideoID : 1Format : AVCFormat/Info : Advanced Video CodecFormat profile : [email protected] settings : CABAC / 10 Ref FramesFormat settings, CABAC : YesFormat settings, RefFrames : 10 framesCodec ID : avc1Codec ID/Info : Advanced Video CodingDuration : 1 h 40 minBit rate : 3 000 kb/sMaximum bit rate : 10.2 Mb/sWidth : 1 280 pixelsHeight : 536 pixelsDisplay aspect ratio : 2.40:1Frame rate mode : ConstantFrame rate : 23.976 (24000/1001) FPSColor space : YUVChroma subsampling : 4:2:0Bit depth : 8 bitsScan type : ProgressiveBits/(Pixel*Frame) : 0.182Stream size : 2.11 GiB (77%)Writing library : x264 core 152 r2851 ba24899Encoding settings : cabac=1 / ref=10 / deblock=1:-2:-1 / analyse=0x3:0x113 / me=umh / subme=11 / psy=1 / psy_rd=1.00:0.00 / mixed_ref=1 / me_range=32 / chroma_me=1 / trellis=2 / 8x8dct=1 / cqm=0 / deadzone=21,11 / fast_pskip=0 / chroma_qp_offset=-2 / threads=6 / lookahead_threads=1 / sliced_threads=0 / nr=0 / decimate=0 / interlaced=0 / bluray_compat=0 / constrained_intra=0 / bframes=8 / b_pyramid=2 / b_adapt=2 / b_bias=0 / direct=3 / weightb=1 / open_gop=0 / weightp=2 / keyint=250 / keyint_min=23 / scenecut=40 / intra_refresh=0 / rc=2pass / mbtree=0 / bitrate=3000 / ratetol=1.0 / qcomp=0.70 / qpmin=0 / qpmax=69 / qpstep=4 / cplxblur=20.0 / qblur=0.5 / ip_ratio=1.40 / pb_ratio=1.30 / aq=2:0.80Encoded date : UTC 2018-07-10 14:16:19Tagged date : UTC 2018-07-12 13:39:59Color range : LimitedColor primaries : BT.709Transfer characteristics : BT.709Matrix coefficients : BT.709

Audio #1ID : 2Format : AACFormat/Info : Advanced Audio CodecFormat profile : LCCodec ID : mp4a-40-2Duration : 1 h 40 minBit rate mode : VariableBit rate : 128 kb/sMaximum bit rate : 136 kb/sChannel(s) : 2 channelsChannel positions : Front: L RSampling rate : 48.0 kHzFrame rate : 46.875 FPS (1024 SPF)Compression mode : LossyStream size : 92.0 MiB (3%)Title : Russian / DubEncoded date : UTC 2018-07-12 11:56:05Tagged date : UTC 2018-07-12 13:39:59

Audio #2ID : 3Format : AACFormat/Info : Advanced Audio CodecFormat profile : LCCodec ID : mp4a-40-2Duration : 1 h 40 minBit rate mode : VariableBit rate : 128 kb/sMaximum bit rate : 137 kb/sChannel(s) : 2 channelsChannel positions : Front: L RSampling rate : 48.0 kHzFrame rate : 46.875 FPS (1024 SPF)Compression mode : LossyStream size : 92.0 MiB (3%)Title : Russian / MVO, #1Encoded date : UTC 2018-07-12 12:07:13Tagged date : UTC 2018-07-12 13:39:59

Audio #3ID : 4Format : AACFormat/Info : Advanced Audio CodecFormat profile : LCCodec ID : mp4a-40-2Duration : 1 h 40 minBit rate mode : VariableBit rate : 128 kb/sMaximum bit rate : 136 kb/sChannel(s) : 2 channelsChannel positions : Front: L RSampling rate : 48.0 kHzFrame rate : 46.875 FPS (1024 SPF)Compression mode : LossyStream size : 92.1 MiB (3%)Title : Russian / MVO, #2Encoded date : UTC 2018-07-12 12:10:07Tagged date : UTC 2018-07-12 13:39:59

Audio #4ID : 5Format : AACFormat/Info : Advanced Audio CodecFormat profile : LCCodec ID : mp4a-40-2Duration : 1 h 40 minBit rate mode : VariableBit rate : 128 kb/sMaximum bit rate : 132 kb/sChannel(s) : 2 channelsChannel positions : Front: L RSampling rate : 48.0 kHzFrame rate : 46.875 FPS (1024 SPF)Compression mode : LossyStream size : 92.1 MiB (3%)Title : Ukrainian / MVO, ICTVEncoded date : UTC 2018-07-12 13:24:33Tagged date : UTC 2018-07-12 13:39:59

Audio #5ID : 6Format : AACFormat/Info : Advanced Audio CodecFormat profile : LCCodec ID : mp4a-40-2Duration : 1 h 40 minBit rate mode : VariableBit rate : 128 kb/sMaximum bit rate : 137 kb/sChannel(s) : 2 channelsChannel positions : Front: L RSampling rate : 48.0 kHzFrame rate : 46.875 FPS (1024 SPF)Compression mode : LossyStream size : 92.0 MiB (3%)Title : Russian / DVO, Glanz&KorolevaEncoded date : UTC 2018-07-12 11:59:29Tagged date : UTC 2018-07-12 13:39:59

Audio #6ID : 7Format : AACFormat/Info : Advanced Audio CodecFormat profile : LCCodec ID : mp4a-40-2Duration : 1 h 40 minBit rate mode : VariableBit rate : 128 kb/sMaximum bit rate : 140 kb/sChannel(s) : 2 channelsChannel positions : Front: L RSampling rate : 48.0 kHzFrame rate : 46.875 FPS (1024 SPF)Compression mode : LossyStream size : 92.0 MiB (3%)Title : Russian / VO, GavrilovEncoded date : UTC 2018-07-12 12:13:22Tagged date : UTC 2018-07-12 13:39:59

Audio #7ID : 8Format : AACFormat/Info : Advanced Audio CodecFormat profile : LCCodec ID : mp4a-40-2Duration : 1 h 40 minBit rate mode : VariableBit rate : 128 kb/sMaximum bit rate : 136 kb/sChannel(s) : 2 channelsChannel positions : Front: L RSampling rate : 48.0 kHzFrame rate : 46.875 FPS (1024 SPF)Compression mode : LossyStream size : 92.0 MiB (3%)Title : English / OriginalEncoded date : UTC 2018-07-12 11:52:19Tagged date : UTC 2018-07-12 13:39:59

Text #1ID : 9Format : Timed TextCodec ID : tx3gDuration : 1 h 14 minBit rate mode : VariableBit rate : 1 b/sStream size : 529 Bytes (0%)Title : Russian / ForcedForced : NoEncoded date : UTC 2018-07-12 13:06:19Tagged date : UTC 2018-07-12 13:39:59

Text #2ID : 10Format : Timed TextCodec ID : tx3gDuration : 1 h 32 minBit rate mode : VariableBit rate : 53 b/sStream size : 36.3 KiB (0%)Title : Russian / FullForced : NoEncoded date : UTC 2018-07-12 13:06:19Tagged date : UTC 2018-07-12 13:39:59

Text #3ID : 11Format : Timed TextCodec ID : tx3gDuration : 1 h 32 minBit rate mode : VariableBit rate : 32 b/sStream size : 21.5 KiB (0%)Title : English / FullForced : NoEncoded date : UTC 2018-07-12 13:06:19Tagged date : UTC 2018-07-12 13:39:59

Text #4ID : 12Format : Timed TextCodec ID : tx3gDuration : 1 h 32 minBit rate mode : VariableBit rate : 34 b/sStream size : 23.0 KiB (0%)Title : English / SDHForced : NoEncoded date : UTC 2018-07-12 13:06:19Tagged date : UTC 2018-07-12 13:39:59
</div>
</div>
Лара Крофт: Расхитительница гробниц 2 - Колыбель жизни / Lara Croft Tomb Raider: The Cradle of Life


Год выпуска: 2003
Страна: США / Paramount Pictures
Жанр: фэнтези, боевик, триллер, приключения
Продолжительность: 01:57:21
Перевод №1: русский Профессиональный (полное дублирование)
Перевод №2: русский Профессиональный (многоголосый, закадровый)
Перевод №3: украинский Профессиональный (многоголосый, закадровый) ICTV
Перевод №4: украинский Профессиональный (многоголосый, закадровый) Новый канал
Перевод №5: русский Профессиональный (двухголосый, закадровый) Гланц и Королёва
Перевод №6: русский Авторский (одноголосый, закадровый) Гаврилов
Перевод №7: русский Авторский (одноголосый, закадровый) Живов
Оригинальная дорожка: Есть
Субтитры: русские (Forced), (Full Blu-ray), (Full Custom), английские (Full)
Режиссер: Ян де Бонт / Jan de Bont
В ролях: Анджелина Джоли, Джерард Батлер, Киаран Хиндс, Крис Барри, Ноа Тейлор, Джимон Хунсу, Тиль Швайгер, Саймон Ям, Теренс Йин, Даниэль Кальтаджироне .
Описание: Во второй серии приключений прекрасной расхитительницы гробниц Лары Крофт география действия становится ещё обширней и экзотичней. Ларе предстоит побывать в Греции, Кении, Танзании, Гонконге и Китае, и, разумеется, не для того, чтобы оценить местные красоты.
Она будет противостоять злодею-интеллектуалу Чену Ло, возглавляющему китайский преступный синдикат. Ло, искусный бизнесмен и хладнокровный убийца, замыслил украсть мифический Ящик Пандоры из ушедшего под воду храма, чтобы использовать его как оружие Судного дня…

Релиз группы

Качество: BDRip / рип с Blu-ray Disc 1080p <<LCTR_THE_CRADLE_OF_LIFE>>

Формат: MP4
Видео кодек: H.264
Аудио кодек: AAC
Видео: 1280x546 AR:2.34 2800 kbps 23.976 fps
Аудио №1: [Russian] 2ch 48 kHz 128 kbps - [Dub] Профессиональный (полное дублирование)
Аудио №2: [Russian] 2ch 48 kHz 128 kbps - [MVO] Профессиональный (многоголосый, закадровый)
Аудио №4: [Ukrainian] 2ch 48 kHz 128 kbps - [MVO] Профессиональный (многоголосый, закадровый) ICTV
Аудио №4: [Ukrainian] 2ch 48 kHz 128 kbps - [MVO] Профессиональный (многоголосый, закадровый) Новый канал
Аудио №5: [Russian] 2ch 48 kHz 128 kbps - [DVO] Профессиональный (двухголосый, закадровый) Гланц и Королёва
Аудио №6: [Russian] 2ch 48 kHz 128 kbps - [VO] Авторский (одноголосый, закадровый) Гаврилов
Аудио №6: [Russian] 2ch 48 kHz 128 kbps - [VO] Авторский (одноголосый, закадровый) Живов
Аудио №7: [English] 2ch 48 kHz 128 kbps - Original
<div class="sp-wrap">
<div class="sp-head folded">Logx264</div>
<div class="sp-body">avs [info]: 1280x546p 1:1 @ 24000/1001 fps (cfr)
x264 [info]: using SAR=1/1
x264 [info]: using cpu capabilities: MMX2 SSE2Fast SSSE3 SSE4.2 AVX FMA3 BMI2 AVX2
x264 [info]: profile High, level 4.1

x264 [info]: frame I:1265 Avg QP:16.82 size: 79259
x264 [info]: frame P:44313 Avg QP:20.57 size: 27085
x264 [info]: frame B:123228 Avg QP:22.32 size: 9435
x264 [info]: consecutive B-frames: 4.5% 6.6% 14.2% 23.7% 14.7% 23.4% 5.4% 5.4% 1.4% 0.6%
x264 [info]: mb I I16..4: 5.7% 81.2% 13.1%
x264 [info]: mb P I16..4: 1.2% 9.9% 1.5% P16..4: 34.9% 37.3% 8.5% 0.0% 0.0% skip: 6.8%
x264 [info]: mb B I16..4: 0.1% 1.3% 0.2% B16..8: 38.7% 19.2% 2.3% direct: 4.4% skip:33.8% L0:46.8% L1:46.1% BI: 7.0%
x264 [info]: 8x8 transform intra:79.1% inter:68.2%
x264 [info]: direct mvs spatial:98.2% temporal:1.8%
x264 [info]: coded y,uvDC,uvAC intra: 82.0% 81.7% 50.8% inter: 25.1% 24.7% 9.4%
x264 [info]: i16 v,h,dc,p: 33% 11% 3% 52%
x264 [info]: i8 v,h,dc,ddl,ddr,vr,hd,vl,hu: 11% 5% 4% 10% 16% 14% 15% 11% 12%
x264 [info]: i4 v,h,dc,ddl,ddr,vr,hd,vl,hu: 22% 6% 6% 8% 13% 12% 13% 9% 11%
x264 [info]: i8c dc,h,v,p: 33% 26% 21% 20%
x264 [info]: Weighted P-Frames: Y:18.1% UV:13.0%
x264 [info]: ref P L0: 48.7% 10.0% 16.9% 6.6% 5.1% 3.7% 3.3% 1.8% 1.8% 1.6% 0.5% 0.1%
x264 [info]: ref B L0: 73.5% 11.4% 5.8% 3.0% 2.1% 1.8% 1.4% 0.7% 0.3%
x264 [info]: ref B L1: 95.1% 4.9%
x264 [info]: kb/s:2798.76

encoded 168806 frames, 8.48 fps, 2798.76 kb/s
GeneralComplete name : K:\Torrents\Lara Croft Tomb Raider Dilogy.2001-2003.BDRip.x264.1280x\Lara Croft Tomb Raider The Cradle of Life.2003.BDRip.x264.1280x.rip by Frost O.S.mp4Format : MPEG-4Format profile : 3GPP Release 6 GeneralCodec ID : 3gg6 (isom/3gg6/mp42)File size : 3.15 GiBDuration : 1 h 57 minOverall bit rate mode : VariableOverall bit rate : 3 839 kb/sEncoded date : UTC 2018-07-12 13:49:59Tagged date : UTC 2018-07-12 13:49:59

VideoID : 1Format : AVCFormat/Info : Advanced Video CodecFormat profile : [email protected] settings : CABAC / 10 Ref FramesFormat settings, CABAC : YesFormat settings, RefFrames : 10 framesCodec ID : avc1Codec ID/Info : Advanced Video CodingDuration : 1 h 57 minBit rate : 2 800 kb/sMaximum bit rate : 10.1 Mb/sWidth : 1 280 pixelsHeight : 546 pixelsDisplay aspect ratio : 2.35:1Frame rate mode : ConstantFrame rate : 23.976 (24000/1001) FPSColor space : YUVChroma subsampling : 4:2:0Bit depth : 8 bitsScan type : ProgressiveBits/(Pixel*Frame) : 0.167Stream size : 2.29 GiB (73%)Writing library : x264 core 152 r2851 ba24899Encoding settings : cabac=1 / ref=10 / deblock=1:-2:-1 / analyse=0x3:0x113 / me=umh / subme=11 / psy=1 / psy_rd=1.00:0.00 / mixed_ref=1 / me_range=32 / chroma_me=1 / trellis=2 / 8x8dct=1 / cqm=0 / deadzone=21,11 / fast_pskip=0 / chroma_qp_offset=-2 / threads=6 / lookahead_threads=1 / sliced_threads=0 / nr=0 / decimate=0 / interlaced=0 / bluray_compat=0 / constrained_intra=0 / bframes=9 / b_pyramid=2 / b_adapt=2 / b_bias=0 / direct=3 / weightb=1 / open_gop=0 / weightp=2 / keyint=250 / keyint_min=23 / scenecut=40 / intra_refresh=0 / rc=2pass / mbtree=0 / bitrate=2800 / ratetol=1.0 / qcomp=0.70 / qpmin=0 / qpmax=69 / qpstep=4 / cplxblur=20.0 / qblur=0.5 / ip_ratio=1.40 / pb_ratio=1.30 / aq=1:0.80Encoded date : UTC 2018-07-11 13:35:49Tagged date : UTC 2018-07-12 13:50:52Color range : LimitedColor primaries : BT.709Transfer characteristics : BT.709Matrix coefficients : BT.709

Audio #1ID : 2Format : AACFormat/Info : Advanced Audio CodecFormat profile : LCCodec ID : mp4a-40-2Duration : 1 h 57 minBit rate mode : VariableBit rate : 128 kb/sMaximum bit rate : 133 kb/sChannel(s) : 2 channelsChannel positions : Front: L RSampling rate : 48.0 kHzFrame rate : 46.875 FPS (1024 SPF)Compression mode : LossyStream size : 107 MiB (3%)Title : Russian / DubEncoded date : UTC 2018-07-12 12:25:53Tagged date : UTC 2018-07-12 13:50:52

Audio #2ID : 3Format : AACFormat/Info : Advanced Audio CodecFormat profile : LCCodec ID : mp4a-40-2Duration : 1 h 57 minBit rate mode : VariableBit rate : 128 kb/sMaximum bit rate : 136 kb/sChannel(s) : 2 channelsChannel positions : Front: L RSampling rate : 48.0 kHzFrame rate : 46.875 FPS (1024 SPF)Compression mode : LossyStream size : 107 MiB (3%)Title : Russian / MVOEncoded date : UTC 2018-07-12 12:33:16Tagged date : UTC 2018-07-12 13:50:52

Audio #3ID : 4Format : AACFormat/Info : Advanced Audio CodecFormat profile : LCCodec ID : mp4a-40-2Duration : 1 h 57 minBit rate mode : VariableBit rate : 128 kb/sMaximum bit rate : 135 kb/sChannel(s) : 2 channelsChannel positions : Front: L RSampling rate : 48.0 kHzFrame rate : 46.875 FPS (1024 SPF)Compression mode : LossyStream size : 107 MiB (3%)Title : Ukrainian / MVO, ICTVEncoded date : UTC 2018-07-12 12:48:48Tagged date : UTC 2018-07-12 13:50:52

Audio #4ID : 5Format : AACFormat/Info : Advanced Audio CodecFormat profile : LCCodec ID : mp4a-40-2Duration : 1 h 57 minBit rate mode : VariableBit rate : 128 kb/sMaximum bit rate : 135 kb/sChannel(s) : 2 channelsChannel positions : Front: L RSampling rate : 48.0 kHzFrame rate : 46.875 FPS (1024 SPF)Compression mode : LossyStream size : 107 MiB (3%)Title : Ukrainian / MVO, Novui_kanalEncoded date : UTC 2018-07-12 12:52:23Tagged date : UTC 2018-07-12 13:50:52

Audio #5ID : 6Format : AACFormat/Info : Advanced Audio CodecFormat profile : LCCodec ID : mp4a-40-2Duration : 1 h 57 minBit rate mode : VariableBit rate : 128 kb/sMaximum bit rate : 137 kb/sChannel(s) : 2 channelsChannel positions : Front: L RSampling rate : 48.0 kHzFrame rate : 46.875 FPS (1024 SPF)Compression mode : LossyStream size : 107 MiB (3%)Title : Russian / DVO, Glanz&KorolevaEncoded date : UTC 2018-07-12 12:29:12Tagged date : UTC 2018-07-12 13:50:52

Audio #6ID : 7Format : AACFormat/Info : Advanced Audio CodecFormat profile : LCCodec ID : mp4a-40-2Duration : 1 h 57 minBit rate mode : VariableBit rate : 128 kb/sMaximum bit rate : 134 kb/sChannel(s) : 2 channelsChannel positions : Front: L RSampling rate : 48.0 kHzFrame rate : 46.875 FPS (1024 SPF)Compression mode : LossyStream size : 107 MiB (3%)Title : Russian / VO, GavrilovEncoded date : UTC 2018-07-12 12:45:02Tagged date : UTC 2018-07-12 13:50:52

Audio #7ID : 8Format : AACFormat/Info : Advanced Audio CodecFormat profile : LCCodec ID : mp4a-40-2Duration : 1 h 57 minBit rate mode : VariableBit rate : 128 kb/sMaximum bit rate : 138 kb/sChannel(s) : 2 channelsChannel positions : Front: L RSampling rate : 48.0 kHzFrame rate : 46.875 FPS (1024 SPF)Compression mode : LossyStream size : 107 MiB (3%)Title : Russian / VO, ZhuvovEncoded date : UTC 2018-07-12 12:41:55Tagged date : UTC 2018-07-12 13:50:52

Audio #8ID : 9Format : AACFormat/Info : Advanced Audio CodecFormat profile : LCCodec ID : mp4a-40-2Duration : 1 h 57 minBit rate mode : VariableBit rate : 128 kb/sMaximum bit rate : 134 kb/sChannel(s) : 2 channelsChannel positions : Front: L RSampling rate : 48.0 kHzFrame rate : 46.875 FPS (1024 SPF)Compression mode : LossyStream size : 107 MiB (3%)Title : English / OriginalEncoded date : UTC 2018-07-12 12:16:49Tagged date : UTC 2018-07-12 13:50:52

Text #1ID : 10Format : Timed TextCodec ID : tx3gDuration : 1 h 19 minBit rate mode : VariableBit rate : 1 b/sStream size : 662 Bytes (0%)Title : Russian / ForcedForced : NoEncoded date : UTC 2018-07-12 13:50:52Tagged date : UTC 2018-07-12 13:50:52

Text #2ID : 11Format : Timed TextCodec ID : tx3gDuration : 1 h 57 minBit rate mode : VariableBit rate : 60 b/sStream size : 51.3 KiB (0%)Title : Russian / Full Blu-rayForced : NoEncoded date : UTC 2018-07-12 13:50:52Tagged date : UTC 2018-07-12 13:50:52

Text #3ID : 12Format : Timed TextCodec ID : tx3gDuration : 1 h 47 minBit rate mode : VariableBit rate : 65 b/sStream size : 51.1 KiB (0%)Title : Russian / Full CustomForced : NoEncoded date : UTC 2018-07-12 13:50:52Tagged date : UTC 2018-07-12 13:50:52

Text #4ID : 13Format : Timed TextCodec ID : tx3gDuration : 1 h 47 minBit rate mode : VariableBit rate : 40 b/sStream size : 31.5 KiB (0%)Title : English / FullForced : NoEncoded date : UTC 2018-07-12 13:50:52Tagged date : UTC 2018-07-12 13:50:52
</div>
</div>

Трекер:  [ 12-Июл-2018 19:36 ]

  

Скачать .torrent

Размер .torrent файла 30 KB


Размер: 5.89 GB
Хэш (hash) релиза: 30241b873c16f7d34339bfbd24b02c64a6083cad

Еще никто не оставлял запись к записи скачать торрент [VIDEO] Лара Крофт: Дилогия Lara Croft Tomb Raider: Dilogy . Будь первым!

!Обратная связь