Thriller | Warrior Baek Dong Soo 20.Bölüm 39901 | Top 100 most popular apps

Скачать через торрент [VIDEO] Лара Крофт: Дилогия Lara Croft Tomb Raider: Dilogy бесплатно русская версия torrent активатор

Статистика раздачи
Размер:  987 MB   |    Зарегистрирован:  3 месяца 7 дней   |    .torrent скачан:  11 раз   |   
Раздают:  1  
   
загрузка...
 
Автор Сообщение

Galfimbul

avatar Galfimbul



Лара Крофт: Дилогия / Lara Croft Tomb Raider: Dilogy

Лара Крофт: Расхитительница гробниц / Lara Croft Tomb Raider


Год выпуска: 2001
Страна: США, Германия, Япония, Великобритания / Mutual Film Corporation, Paramount Pictures
Жанр: фэнтези, боевик, триллер, приключения
Продолжительность: 01:40:32
Перевод: русский Профессиональный (полное дублирование)
Субтитры: нет
Режиссер: Саймон Уэст / Simon West
В ролях: Анджелина Джоли, Джон Войт, Айэйн Глен, Ноа Тейлор, Дэниэл Крэйг, Ричард Джонсон, Крис Барри, Джулиан Райнд-Татт, Лесли Филлипс, Роберт Филлипс и другие .
Описание: Она владеет всеми видами рукопашного боя, стреляет из любых видов оружия и способна выжить в самых экстремальных условиях. Эта девушка — дочь лорда, леди Лара Крофт. Однажды под лестницей она обнаруживает вход в секретную комнату, где находятся старинные часы с удивительным устройством внутри .
Релиз группы

Качество: BDRip / рип с Blu-ray disc 1080p (Custom)
Формат: MP4
Видео кодек: XviD
Аудио кодек: AAC
Видео: 480x200 AR:2.40 501 kbps 23.976 fps
Аудио: [Russian] 2ch 48 kHz 128 kbps - [Dub] Профессиональный (полное дублирование)
<div class="sp-wrap">
<div class="sp-head folded">ТХ/MediaInfo</div>
<div class="sp-body">

GeneralComplete name : K:\Torrents\Lara Croft Tomb Raider Dilogy.2001-2003.BDRip.XviD.480x\Lara Croft Tomb Raider.2001.BDRip.XviD.480x.rip by Frost O.S.mp4Format : MPEG-4Format profile : 3GPP Media Release 5Codec ID : 3gp5 (isom/3gp5/3gp4/mp41/mp42)File size : 455 MiBDuration : 1 h 40 minOverall bit rate mode : VariableOverall bit rate : 633 kb/sEncoded date : UTC 2018-07-12 13:43:34Tagged date : UTC 2018-07-12 13:43:34

VideoID : 1Format : MPEG-4 VisualFormat profile : Advanced [email protected] settings : BVOP / Custom MatrixFormat settings, BVOP : YesFormat settings, QPel : NoFormat settings, GMC : No warppointsFormat settings, Matrix : CustomCodec ID : mp4v-20Duration : 1 h 40 minBit rate mode : VariableBit rate : 501 kb/sMaximum bit rate : 3 512 kb/sWidth : 480 pixelsHeight : 200 pixelsDisplay aspect ratio : 2.40:1Frame rate mode : VariableFrame rate : 23.976 (24000/1001) FPSMinimum frame rate : 11.988 FPSMaximum frame rate : 23.976 FPSColor space : YUVChroma subsampling : 4:2:0Bit depth : 8 bitsScan type : ProgressiveCompression mode : LossyBits/(Pixel*Frame) : 0.218Stream size : 360 MiB (79%)Title : [email protected]-DEV-rev248-g39d5978-masterWriting library : XviD 1.2.1 (UTC 2008-12-04)Encoded date : UTC 2018-07-10 19:11:52Tagged date : UTC 2018-07-12 13:43:38

AudioID : 2Format : AACFormat/Info : Advanced Audio CodecFormat profile : LCCodec ID : mp4a-40-2Duration : 1 h 40 minBit rate mode : VariableBit rate : 128 kb/sMaximum bit rate : 136 kb/sChannel(s) : 2 channelsChannel positions : Front: L RSampling rate : 48.0 kHzFrame rate : 46.875 FPS (1024 SPF)Compression mode : LossyStream size : 92.0 MiB (20%)Title : Russian / DubEncoded date : UTC 2018-07-12 11:56:05Tagged date : UTC 2018-07-12 13:43:38
</div>
</div>
Лара Крофт: Расхитительница гробниц 2 - Колыбель жизни / Lara Croft Tomb Raider: The Cradle of Life


Год выпуска: 2003
Страна: США / Paramount Pictures
Жанр: фэнтези, боевик, триллер, приключения
Продолжительность: 01:57:21
Перевод: русский Профессиональный (полное дублирование)
Субтитры: нет
Режиссер: Ян де Бонт / Jan de Bont
В ролях: Анджелина Джоли, Джерард Батлер, Киаран Хиндс, Крис Барри, Ноа Тейлор, Джимон Хунсу, Тиль Швайгер, Саймон Ям, Теренс Йин, Даниэль Кальтаджироне .
Описание: Во второй серии приключений прекрасной расхитительницы гробниц Лары Крофт география действия становится ещё обширней и экзотичней. Ларе предстоит побывать в Греции, Кении, Танзании, Гонконге и Китае, и, разумеется, не для того, чтобы оценить местные красоты.
Она будет противостоять злодею-интеллектуалу Чену Ло, возглавляющему китайский преступный синдикат. Ло, искусный бизнесмен и хладнокровный убийца, замыслил украсть мифический Ящик Пандоры из ушедшего под воду храма, чтобы использовать его как оружие Судного дня…

Релиз группы

Качество: BDRip / рип с Blu-ray Disc 1080p <<LCTR_THE_CRADLE_OF_LIFE>>

Формат: MP4
Видео кодек: XviD
Аудио кодек: AAC
Видео: 480x208 AR:2.31 503 kbps 23.976 fps
Аудио: [Russian] 2ch 48 kHz 128 kbps - [Dub] Профессиональный (полное дублирование)
<div class="sp-wrap">
<div class="sp-head folded">ТХ/MediaInfo</div>
<div class="sp-body">

GeneralComplete name : K:\Torrents\Lara Croft Tomb Raider Dilogy.2001-2003.BDRip.XviD.480x\Lara Croft Tomb Raider The Cradle of Life.2003.BDRip.XviD.480x.rip by Frost O.S.mp4Format : MPEG-4Format profile : 3GPP Media Release 5Codec ID : 3gp5 (isom/3gp5/3gp4/mp41/mp42)File size : 533 MiBDuration : 1 h 57 minOverall bit rate mode : VariableOverall bit rate : 634 kb/sEncoded date : UTC 2018-07-12 14:36:56Tagged date : UTC 2018-07-12 14:36:56

VideoID : 1Format : MPEG-4 VisualFormat profile : Advanced [email protected] settings : BVOP / Custom MatrixFormat settings, BVOP : YesFormat settings, QPel : NoFormat settings, GMC : No warppointsFormat settings, Matrix : CustomCodec ID : mp4v-20Duration : 1 h 57 minBit rate mode : VariableBit rate : 503 kb/sMaximum bit rate : 5 879 kb/sWidth : 480 pixelsHeight : 208 pixelsDisplay aspect ratio : 2.35:1Frame rate mode : ConstantFrame rate : 23.976 (24000/1001) FPSColor space : YUVChroma subsampling : 4:2:0Bit depth : 8 bitsScan type : ProgressiveCompression mode : LossyBits/(Pixel*Frame) : 0.210Stream size : 422 MiB (79%)Title : [email protected]-DEV-rev248-g39d5978-masterWriting library : XviD 1.2.1 (UTC 2008-12-04)Encoded date : UTC 2018-07-11 20:21:29Tagged date : UTC 2018-07-12 14:37:02

AudioID : 2Format : AACFormat/Info : Advanced Audio CodecFormat profile : LCCodec ID : mp4a-40-2Duration : 1 h 57 minBit rate mode : VariableBit rate : 128 kb/sMaximum bit rate : 133 kb/sChannel(s) : 2 channelsChannel positions : Front: L RSampling rate : 48.0 kHzFrame rate : 46.875 FPS (1024 SPF)Compression mode : LossyStream size : 107 MiB (20%)Title : Russian / DubEncoded date : UTC 2018-07-12 12:25:53Tagged date : UTC 2018-07-12 14:37:02
</div>
</div>

Трекер:  [ 12-Июл-2018 19:36 ]

  

Скачать .torrent

Размер .torrent файла 20 KB


Размер: 987 MB
Хэш (hash) релиза: 7b16066ca948022f2e61b1e4ff626d4a81cb8ced

Еще никто не оставлял запись к записи скачать торрент [VIDEO] Лара Крофт: Дилогия Lara Croft Tomb Raider: Dilogy . Будь первым!

!Обратная связь