Faith & Spirituality | Download | Shangri-La Suite

Скачать через торрент Герой из прошлого Hero: Beyond the Boundary of Time Фильм бесплатно в хорошем качестве torrent

Скачивайте на UnionPeer.org фильмы через торрент без регистрации. Новинки кино в хорошем качестве через торрент. На UnionPeer.org можно скачать через торрент фильмы 2014 и 2015 годов. Самые новые фильмы.

Скачать торрент Герой из прошлого Hero: Beyond the Boundary of Time бесплатно через .torrent фильм мультфильм сериал

Статистика раздачи
Размер:  4.14 GB   |    Зарегистрирован:  2 месяца 10 дней   |    .torrent скачан:  17 раз   |   
Раздают:  1  
   
загрузка...
 
Автор Сообщение

Galfimbul

avatar Galfimbul


Герой из прошлого / Hero: Beyond the Boundary of Time / Wei Xiao Bao: Feng zhi gou nu

Страна: Гонконг
Жанр: боевик, комедия
Год выпуска: 1993
Продолжительность: 01:36:47

Перевод: Одноголосый закадровый Хоррор Мэйкер
Субтитры: английские, китайские
Оригинальная аудиодорожка: китайский

Режиссер: Блэки Ко / Blacky Ko

В ролях: Тони Леунг Чиу-Вай, Дикки Чеунг, Нг Сют-Ман, Вероника Ип, Кен Тонг, София Кроуфорд

Описание: Император династии Цинь тяжело болен. Для того, что б император поправился, ученые создают машину времени и отправляют в ней в будущее преданного друга императора, который должен найти лекарство для лечения императора. Но один из врагов императора узнав об этом, посылает в будущее двух убийц которые должны помешать задуманному.

Меню: Статичное английское

Сэмпл: http://multi-up.com/1203616

Тип релиза: DVD5(Custom)
Контейнер: DVD-Video

Видео: NTSC 16:9 (720x480) VBR
Аудио: Russian (Dolby AC3, 2 ch) 192 Кбит/сек
Аудио 2: Cantonese (Dolby AC3, 6 ch) 384 Кбит/сек
Формат субтитров: prerendered (DVD/IDX+SUB)
Информация о проигрывателе: Код зоны проигрывателя: 5 Текущий привод: E: Код зоны диска: 1, 2, 3, 4, 5, 6

Полное имя : E:\VIDEO_TS\VTS_01_1.VOBФормат : MPEG-PSРазмер файла : 1024 МбайтПродолжительность : 22 м.Режим общего битрейта : ПеременныйОбщий поток : 6419 Кбит/сек

ВидеоИдентификатор : 224 (0xE0)Формат : MPEG VideoВерсия формата : Version 2Профиль формата : [email protected]Параметр BVOP формата : ДаПараметр матрицы формата : ВыборочнаяПараметр GOP формата : M=3, N=15Продолжительность : 22 м.Вид битрейта : ПеременныйБитрейт : 5715 Кбит/секШирина : 720 пикселейВысота : 480 пикселейСоотношение сторон : 16:9Частота кадров : 29,970 кадров/секСтандарт вещания : NTSCЦветовое пространство : YUVСубдискретизация насыщенности : 4:2:0Битовая глубина : 8 битТип развёртки : ЧересстрочнаяПорядок развёртки : Верхнее поле первоеМетод сжатия : С потерямиБит/(Пиксели*Кадры) : 0.552Временной код первого кадра : 10:00:00;00Оригинал временного кода : Group of pictures headerРазмер потока : 912 Мбайт (89%)

Аудио #1Идентификатор : 189 (0xBD)-128 (0x80)Формат : AC-3Формат/Информация : Audio Coding 3Расширение режима : CM (complete main)Параметр Endianness формата : BigРежим смешивания : DVD-VideoПродолжительность : 22 м.Вид битрейта : ПостоянныйБитрейт : 192 Кбит/секКаналы : 2 каналаРасположение каналов : Front: L RЧастота : 48,0 КГцБитовая глубина : 16 битМетод сжатия : С потерямиЗадержка видео : -66 мс.Размер потока : 30,6 Мбайт (3%)

Аудио #2Идентификатор : 189 (0xBD)-129 (0x81)Формат : AC-3Формат/Информация : Audio Coding 3Расширение режима : CM (complete main)Параметр Endianness формата : BigРежим смешивания : DVD-VideoПродолжительность : 22 м.Вид битрейта : ПостоянныйБитрейт : 384 Кбит/секКаналы : 6 каналовРасположение каналов : Front: L C R, Side: L R, LFEЧастота : 48,0 КГцБитовая глубина : 16 битМетод сжатия : С потерямиЗадержка видео : -66 мс.Размер потока : 61,2 Мбайт (6%)

Текст #1Идентификатор : 189 (0xBD)-35 (0x23)Формат : RLEФормат/Информация : Run-length encodingРежим смешивания : DVD-VideoЗадержка видео : -66 мс.

Текст #2Идентификатор : 189 (0xBD)-32 (0x20)Формат : RLEФормат/Информация : Run-length encodingРежим смешивания : DVD-Video

Текст #3Идентификатор : 189 (0xBD)-33 (0x21)Формат : RLEФормат/Информация : Run-length encodingРежим смешивания : DVD-Video

Текст #4Идентификатор : 189 (0xBD)-34 (0x22)Формат : RLEФормат/Информация : Run-length encodingРежим смешивания : DVD-Video


Трекер:  [ 12-Июл-2018 19:30 ]

  

Скачать .torrent

Размер .torrent файла 21 KB


Размер: 4.14 GB
Хэш (hash) релиза: b1f5281ac1e71fcfab9ea30e028934f1516e6c61
Подписка на обновления:

Еще никто не оставлял запись к записи скачать торрент Герой из прошлого Hero: Beyond the Boundary of Time . Будь первым!

!Обратная связь