Gagner de l'argent en Bourse | The Walking Dead Temporada 7 BluRay 1080p | دانلود دوبله فارسی فیلم نگهبانان کهکشان 2 Guardians of the Galaxy Vol 2 2017

Скачать через торрент Фури-кури 2 FLCL Progressive бесплатно Аниме Все серии на русском torrent

Статистика раздачи
Размер:  1.84 GB   |    Зарегистрирован:  4 дня   |    .torrent скачан:  16 раз   |   
Раздают:  1  
   
загрузка...
 
Автор Сообщение

Galfimbul

avatar Galfimbul


Фури-кури 2 / FLCL Progressive

Страна: Япония
Год выпуска: 2018 г.
Жанр: приключения
Тип: TV
Продолжительность: 6 эп, ~25 мин. серия
Режиссер: Мотохиро Кацуюки
Студия: Production I.G
Озвучка:
одноголосая от Persona99 (женская)

техподдержка: goodwing
Описание: Прямое продолжение аниме «Фури-кури».

Много лет миновало с тех пор, как нелюдимый Наота Нандаба и неистовая Харуко Харухара устраивали сумасшедшие гонки и сражения с инопланетными силами, скромно называя это «приключениями».

Теперь Наота... Хотя нет, не Наота. Здесь его вообще не будет.

Наша главная героиня — Хидоми. Она — самый что ни на есть обычный подросток, уже не ждущий от своей скучной и серой жизни каких-то сюрпризов. Точнее не ждала, пока в школу девочки не устроилась новая преподавательница с прекрасным именем... Харуко! Пожив мирно последние минуты, Хидоми обнаруживает, что на её город напала «Medical Mechanica». Прибывшая «Medical Mechanica» — инопланетная компания прямиком из космоса — начала нешуточную войну с ещё одной такой же компанией под названием «Fraternity». И вот теперь их вражда дошла до границ Земли.

Тем временем Хидоми понимает, что в ней самой скрыта некая тайна, которая может спасти всех. Да вот только раскрыть эту тайну под силу лишь неугомонной Харуко. И ведь ещё неясны многие вещи... Почему Харуко вернулась? Куда делась её гитара Rickenbacker 4001, которую она оставила Наоте? И где сейчас андроид Канти?

Впрочем, Хидоми наверняка решит эти загадки.

Качество: HDTVRip
Тип релиза: Без хардсаба
Формат видео: AVI
Автор рипа:
Видео: 704x396, 23.976 fps, XviD ~1 349 Kbps
Аудио: Русская / 2 ch / AC-3 / 48 kHz / 192 Kbps / RUS(int) [озвучка: Persona99]
Аудио 2: Английская / 2 ch / AC-3 / 48 kHz / 192 Kbps
Субтитры: Субтитры от Bazaar Zetsubou: Перевод и оформление: lukorepka Корректура: Литрый Хис(1-4) Перевод Zed2che(5-6)
GeneralComplete name : E:\видео\Аниме\FLCL Progressive\FLCL Progressive - 01.aviFormat : AVIFormat/Info : Audio Video InterleaveFile size : 284 MiBDuration : 22mn 41sOverall bit rate : 1 751 KbpsWriting application : VirtualDubMod 1.5.10.3 (build 2550/release)Writing library : VirtualDubMod build 2550/release

VideoID : 0Format : MPEG-4 VisualFormat profile : Advanced [email protected] settings, BVOP : 2Format settings, QPel : NoFormat settings, GMC : No warppointsFormat settings, Matrix : Default (H.263)Codec ID : XVIDCodec ID/Hint : XviDDuration : 22mn 41sBit rate : 1 349 KbpsWidth : 704 pixelsHeight : 396 pixelsDisplay aspect ratio : 16:9Frame rate : 29.970 fpsColor space : YUVChroma subsampling : 4:2:0Bit depth : 8 bitsScan type : ProgressiveCompression mode : LossyBits/(Pixel*Frame) : 0.161Stream size : 219 MiB (77%)Writing library : XviD 64

Audio #1ID : 1Format : AC-3Format/Info : Audio Coding 3Mode extension : CM (complete main)Format settings, Endianness : BigCodec ID : 2000Duration : 22mn 41sBit rate mode : ConstantBit rate : 192 KbpsChannel(s) : 2 channelsChannel positions : Front: L RSampling rate : 48.0 KHzCompression mode : LossyStream size : 31.2 MiB (11%)Alignment : Split accross interleavesInterleave, duration : 33 ms (1.00 video frame)Interleave, preload duration : 500 msTitle : Persona99

Audio #2ID : 2Format : AC-3Format/Info : Audio Coding 3Mode extension : CM (complete main)Format settings, Endianness : BigCodec ID : 2000Duration : 22mn 41sBit rate mode : ConstantBit rate : 192 KbpsChannel(s) : 2 channelsChannel positions : Front: L RSampling rate : 48.0 KHzCompression mode : LossyStream size : 31.2 MiB (11%)Alignment : Split accross interleavesInterleave, duration : 33 ms (1.00 video frame)Interleave, preload duration : 500 msTitle : English
<div style="margin-left: 2em" class="post-ul">01. Новое начало
02. Халявный мёд
03. Блинчики – лягушки
04. Водоворот
05. Дурак на планете
06. Наш бег
</div>

Трекер:  [ 12-Июл-2018 19:30 ]

  

Скачать .torrent

Размер .torrent файла 20 KB


Размер: 1.84 GB
Хэш (hash) релиза: 9a552714f3fc9834e14d14cf055608159dc6974a
Подписка на обновления:

Торренты, похожие на Фури-кури 2 FLCL Progressive скачать торрент

Форум Название Автор Размер S L Добавлен
Аниме | HD Rips ·· Фури-кури 2 / FLCL Progressive (Fooly Cooly Progressive / Furi Kuri Progressive) [TV] [2 из 6] [Без хардсаба] [ENG] [2018, приключения, комедия, научная фантастика, пародия, меха, приключения, психоделика, WEBRip] [1080p] Galfimbul 29375134442.74 GB 0 0 1529098209

00:30

16-Июн-18

Еще никто не оставлял запись к записи скачать торрент Фури-кури 2 FLCL Progressive . Будь первым!

!Обратная связь