Watch now! | Preguntas y Respuestas Biblia | Der Bergdoktor (2008)

Скачать через торрент Вмешательство The Intervention Фильм бесплатно в хорошем качестве torrent

Скачивайте на UnionPeer.org фильмы через торрент без регистрации. Новинки кино в хорошем качестве через торрент. На UnionPeer.org можно скачать через торрент фильмы 2014 и 2015 годов. Самые новые фильмы.

Скачать торрент Вмешательство The Intervention бесплатно через .torrent фильм мультфильм сериал

Статистика раздачи
Размер:  1.38 GB   |    Зарегистрирован:  3 месяца 4 дня   |    .torrent скачан:  34 раза   |   
Раздают:  1  
   
загрузка...
 
Автор Сообщение

Galfimbul

avatar Galfimbul


Вмешательство / The Intervention

Страна: США
Жанр: драма, комедия
Год выпуска: 2016
Продолжительность: 01:28:47

Перевод: Профессиональный (многоголосый закадровый) СТС
Субтитры: нет
Оригинальная аудиодорожка: английский

Режиссер: Клеа ДюВалл / Clea DuVall

В ролях: Мелани Лински
Джейсон Риттер
Skylar Bernon
Кира Поцель
Дэвид Бернон
Наташа Лионн
Клеа ДюВалл
Бен Шварц
Алиа Шокат
Винсент Пьяцца

Описание: Выходные для четырех пар приобретают крутой поворот, когда один из супругов узнает, что вся поездка была спланирована, чтобы провести интервенцию их браку.

Сэмпл: http://multi-up.com/1203635

Качество видео: WEB-DLRip
Формат видео: AVI

Видео: MPEG4, XviD, 720x304 (2.35:1), 23.976 fps, 1 635 Kbps (0.312 bit/pixel)
Аудио: AC-3, 48.0 KHz, 2 ch, 192 Kbps, CBR - русский
Аудио 2: AC-3, 48.0 KHz, 6 ch, 384 Kbps, CBR - английский
ОбщееПолное имя : M:\Вмешательство.aviФормат : AVIФормат/Информация : Audio Video InterleaveРазмер файла : 1,38 ГбайтПродолжительность : 1 ч. 28 м.Общий поток : 2225 Кбит/секНазвание фильма : Вмешательство / The Intervention (2016)Программа кодирования : VirtualDubMod 1.5.10.2 (build 2540/release)Библиотека кодирования : VirtualDubMod build 2540/releaseАвторское право : miha2154

ВидеоИдентификатор : 0Формат : MPEG-4 VisualПрофиль формата : Advanced [email protected]Настройки формата : BVOP1 / Custom MatrixПараметр BVOP формата : 1Параметр QPel формата : НетПараметр GMC формата : Без точки переходаПараметр матрицы формата : ВыборочнаяИдентификатор кодека : XVIDИдентификатор кодека/Подсказка : XviDПродолжительность : 1 ч. 28 м.Битрейт : 1635 Кбит/секШирина : 720 пикселейВысота : 304 пикселяСоотношение сторон : 2,35:1Частота кадров : 23,976 (24000/1001) кадра/секЦветовое пространство : YUVСубдискретизация насыщенности : 4:2:0Битовая глубина : 8 битТип развёртки : ПрогрессивнаяМетод сжатия : С потерямиБит/(Пиксели*Кадры) : 0.312Размер потока : 1,01 Гбайт (73%)Библиотека кодирования : XviD 65

Аудио #1Идентификатор : 1Формат : AC-3Формат/Информация : Audio Coding 3Идентификатор кодека : 2000Продолжительность : 1 ч. 28 м.Вид битрейта : ПостоянныйБитрейт : 192 Кбит/секКаналы : 2 каналаРасположение каналов : Front: L RЧастота : 48,0 КГцЧастота кадров : 31,250 кадров/сек (1536 SPF)Битовая глубина : 16 битМетод сжатия : С потерямиРазмер потока : 122 Мбайт (9%)Выравнивание : Разделение по промежуткамПродолжительность промежутка : 42 мс. (1,00 видеокадр)Время предзагрузки промежутка : 500 мс.Заголовок : Профессиональный (многоголосый, закадровый) СТСServiceKind/String : Complete Main

Аудио #2Идентификатор : 2Формат : AC-3Формат/Информация : Audio Coding 3Идентификатор кодека : 2000Продолжительность : 1 ч. 28 м.Вид битрейта : ПостоянныйБитрейт : 384 Кбит/секКаналы : 6 каналовРасположение каналов : Front: L C R, Side: L R, LFEЧастота : 48,0 КГцЧастота кадров : 31,250 кадров/сек (1536 SPF)Битовая глубина : 16 битМетод сжатия : С потерямиРазмер потока : 244 Мбайт (17%)Выравнивание : Разделение по промежуткамПродолжительность промежутка : 42 мс. (1,00 видеокадр)Время предзагрузки промежутка : 500 мс.Заголовок : АнглийскийServiceKind/String : Complete Main


Трекер:  [ 12-Июл-2018 18:30 ]

  

Скачать .torrent

Размер .torrent файла 14 KB


Размер: 1.38 GB
Хэш (hash) релиза: c800e519493e1054a8833fbcc6451042967f529a
Подписка на обновления:

Еще никто не оставлял запись к записи скачать торрент Вмешательство The Intervention . Будь первым!

!Обратная связь