Download History - Rich Brian Lyrics mp3 | Télécharger Part 4 | Die Welt der Winx

Скачать через торрент Смерть Супермена The Death of Superman Фильм бесплатно в хорошем качестве torrent

Скачивайте на UnionPeer.org фильмы через торрент без регистрации. Новинки кино в хорошем качестве через торрент. На UnionPeer.org можно скачать через торрент фильмы 2014 и 2015 годов. Самые новые фильмы.

Скачать торрент Смерть Супермена The Death of Superman бесплатно через .torrent фильм мультфильм сериал

Статистика раздачи
Размер:  1.46 GB   |    Зарегистрирован:  9 дней   |    .torrent скачан:  34 раза   |   
Раздают:  1  
   
загрузка...
 
Автор Сообщение

Galfimbul

avatar Galfimbul


Смерть Супермена / The Death of Superman

Страна: США
Жанр: мультфильм, фантастика, боевик
Год выпуска: 2018
Продолжительность: 01:20:37
Перевод: Любительский (многоголосый закадровый) | HDRezka Studio
Субтитры: нет
Оригинальная аудиодорожка: нет
Режиссер: Джейк Касторена / Jake Castorena, Сэм Лью / Sam Liu
В ролях: Розарио Доусон, Джерри О`Коннелл, Рэйн Уилсон, Шемар Мур, Натан Филлион, Мэтт Лантер, Патрик Фабиан, Джейсон О’Мара, Роки Кэрролл, Кристофер Горам
Описание: Кларк Кент подумывает о том, чтобы раскрыть возлюбленной, Лоис Лэйн, свой самый большой секрет - что он является Суперменом. В это же время на Землю прибывает страшное чудовище Думсдэй, обладающее невероятной силой и злобой. Все супергерои в составе Лиги справедливости с трудом сдерживают монстра, поэтому Супермену придётся отложить свои личные дела и постараться помочь товарищам победить врага.
Качество видео: WEB-DLRip
Формат видео: AVI

Видео: 720x400 (1.80:1), 23.976 fps, XviD build 73 ~2375 kbps avg, 0.34 bit/pixel
Аудио: 48 kHz, AC3 Dolby Digital, 2/0 (L,R) ch, ~192 kbps
<div class="post-box-default">
<div class="post-box">Сэмпл</div>
</div>
Формат                                   : AVI
Формат/Информация                        : Audio Video Interleave
Размер файла                             : 1,46 Гбайт
Продолжительность                        : 1 ч. 20 м.
Общий поток                              : 2577 Кбит/сек
Программа кодирования                    : VirtualDubMod 1.5.10.3 | www.virtualdub-fr.org || (build 2550/release)
Библиотека кодирования                   : VirtualDubMod build 2550/release

Видео
Идентификатор                            : 0
Формат                                   : MPEG-4 Visual
Профиль формата                          : Advanced [email protected]
Настройки формата                        : BVOP1 / Custom Matrix
Параметр BVOP формата                    : 1
Параметр QPel формата                    : Нет
Параметр GMC формата                     : Без точки перехода
Параметр матрицы формата                 : Выборочная
Идентификатор кодека                     : XVID
Идентификатор кодека/Подсказка           : XviD
Продолжительность                        : 1 ч. 20 м.
Битрейт                                  : 2375 Кбит/сек
Ширина                                   : 720 пикселей
Высота                                   : 400 пикселей
Соотношение сторон                       : 16:9
Частота кадров                           : 23,976 (24000/1001) кадра/сек
Цветовое пространство                    : YUV
Субдискретизация насыщенности            : 4:2:0
Битовая глубина                          : 8 бит
Тип развёртки                            : Прогрессивная
Метод сжатия                             : С потерями
Бит/(Пиксели*Кадры)                      : 0.344
Размер потока                            : 1,34 Гбайт (92%)
Библиотека кодирования                   : XviD 73

Аудио
Идентификатор                            : 1
Формат                                   : AC-3
Формат/Информация                        : Audio Coding 3
Идентификатор кодека                     : 2000
Продолжительность                        : 1 ч. 20 м.
Вид битрейта                             : Постоянный
Битрейт                                  : 192 Кбит/сек
Каналы                                   : 2 канала
Расположение каналов                     : Front: L R
Частота                                  : 48,0 КГц
Частота кадров                           : 31,250 кадров/сек (1536 SPF)
Битовая глубина                          : 16 бит
Метод сжатия                             : С потерями
Размер потока                            : 111 Мбайт (7%)
Выравнивание                             : Разделение по промежуткам
Продолжительность промежутка             : 42  мс. (1,00 видеокадр)
Время предзагрузки промежутка            : 500  мс.
ServiceKind/String                       : Complete Main


Трекер:  [ 12-Июл-2018 17:30 ]

  

Скачать .torrent

Размер .torrent файла 15 KB


Размер: 1.46 GB
Хэш (hash) релиза: 9ab576b14110bc118a021a71515495de9f7c205e
Подписка на обновления:

Еще никто не оставлял запись к записи скачать торрент Смерть Супермена The Death of Superman . Будь первым!

!Обратная связь