Financial Statement | Hide ALL IP 2016 12 24 161224 Incl Loader | Never Gonna Take You Back (Lefti Remix) - Single - Satchmode

Скачать через торрент Два дракона против тигра Два дракона : Бой против тигра Фильм бесплатно в хорошем качестве torrent

Скачивайте на UnionPeer.org фильмы через торрент без регистрации. Новинки кино в хорошем качестве через торрент. На UnionPeer.org можно скачать через торрент фильмы 2014 и 2015 годов. Самые новые фильмы.

Скачать торрент Два дракона против тигра Два дракона : Бой против тигра бесплатно через .torrent фильм мультфильм сериал

Статистика раздачи
Размер:  745 MB   |    Зарегистрирован:  9 дней   |    .torrent скачан:  21 раз   |   
Раздают:  1   Качают:  1  
   
загрузка...
 
Автор Сообщение

Galfimbul

avatar Galfimbul


Два дракона против тигра / Два дракона : Бой против тигра / Two Dragons Fight Against Tiger / Shuang long tu hu

Страна: Тайвань
Жанр: боевые искусства
Год выпуска: 1975
Продолжительность: 01:26:12

Перевод: Авторский (одноголосый закадровый) Сергей Кузнецов
Субтитры: нет
Режиссер: Гэм Синг Ян / Gam Sing Yan

В ролях: Пинг Чанг, Фу Чианг Чи, Лаан Чи, Минг-Чинг Чоу, Ченг-Пенг Као, Тинг Чи, Мяо Синь, Чанг Си, Минь Нга

Описание: Ко Тянь Люнг возвращается в родной город, чтобы отомстить за убийство своих родителей, задача, к которой он готовил себя 20 лет, изучая боевые искусства. Но когда он устранил подручных самого главного врага, он может заколебаться в своем стремлении устранить босса, потому что он влюбляется в дочь своего заклятого врага. Сможет ли он теперь отомстить за убийство своих родителей сполна?

Сэмпл: http://multi-up.com/1203625

Качество видео: DVDRip (Исходник DVD-Video)
Формат видео: AVI

Видео: XviD, 640x272, (2,35:1), 23,976 fps, 1071 Кбит/с, 8 бит
Аудио: Русский (MP3, 2 ch, 48,0 KHz, 128 Kbps)
ОбщееПолное имя : H:\Фильмы на трекер\Два дракона против тигра (боевые искусства 1975 год).aviФормат : AVIФормат/Информация : Audio Video InterleaveРазмер файла : 745 МбайтПродолжительность : 1 ч. 26 м.Общий поток : 1209 Кбит/секПрограмма кодирования : VirtualDubMod 1.5.10.3 | www.virtualdub-fr.org || (build 2550/release)Библиотека кодирования : VirtualDubMod build 2550/release

ВидеоИдентификатор : 0Формат : MPEG-4 VisualПрофиль формата : Advanced [email protected]Параметр BVOP формата : 2Параметр QPel формата : НетПараметр GMC формата : Без точки переходаПараметр матрицы формата : ВыборочнаяИдентификатор кодека : XVIDИдентификатор кодека/Подсказка : XviDПродолжительность : 1 ч. 26 м.Битрейт : 1071 Кбит/секШирина : 640 пикселейВысота : 272 пикселяСоотношение сторон : 2,35:1Частота кадров : 23,976 (23976/1000) кадра/секЦветовое пространство : YUVСубдискретизация насыщенности : 4:2:0Битовая глубина : 8 битТип развёртки : ПрогрессивнаяМетод сжатия : С потерямиБит/(Пиксели*Кадры) : 0.257Размер потока : 660 Мбайт (89%)Библиотека кодирования : XviD 73

АудиоИдентификатор : 1Формат : MPEG AudioВерсия формата : Version 1Профиль формата : Layer 3Идентификатор кодека : 55Идентификатор кодека/Подсказка : MP3Продолжительность : 1 ч. 26 м.Вид битрейта : ПостоянныйБитрейт : 128 Кбит/секКаналы : 2 каналаЧастота : 44,1 КГцМетод сжатия : С потерямиРазмер потока : 78,9 Мбайт (11%)Выравнивание : Разделение по промежуткамПродолжительность промежутка : 42 мс. (1,00 видеокадр)Время предзагрузки промежутка : 500 мс.Библиотека кодирования : LAME3.99rНастройки программы : -m s -V 4 -q 2 -lowpass 17 -b 128


Трекер:  [ 12-Июл-2018 17:30 ]

  

Скачать .torrent

Размер .torrent файла 15 KB


Размер: 745 MB
Хэш (hash) релиза: 606e47882bfe0ebdba65894bc897835f83f65ce3
Подписка на обновления:

Еще никто не оставлял запись к записи скачать торрент Два дракона против тигра Два дракона : Бой против тигра . Будь первым!

!Обратная связь