Ultraman X | The Bold Type: Season 2 | 3D Filme

Скачать через торрент Жить одной любовью Любовь и свежая вода Фильм бесплатно в хорошем качестве torrent

Скачивайте на UnionPeer.org фильмы через торрент без регистрации. Новинки кино в хорошем качестве через торрент. На UnionPeer.org можно скачать через торрент фильмы 2014 и 2015 годов. Самые новые фильмы.

Скачать торрент Жить одной любовью Любовь и свежая вода бесплатно через .torrent фильм мультфильм сериал

Статистика раздачи
Размер:  745 MB   |    Зарегистрирован:  5 дней   |    .torrent скачан:  26 раз   |   
Раздают:  1  
   
загрузка...
 
Автор Сообщение

Galfimbul

avatar Galfimbul


Жить одной любовью / Любовь и свежая вода / Living on Love Alone / D'amour et d'eau fraîche
Страна: Франция
Жанр: драма
Год выпуска: 2010
Продолжительность: 01:24:36

Перевод: Профессиональный (многоголосый закадровый) - студия «Омикрон»
Субтитры: нет
Оригинальная аудиодорожка: нет

Режиссер: Изабель Чайка / Isabelle Czajka

В ролях: Анаис Демустье, Пио Мармай, Лоран Пуатрено, Жан-Луи Куллок, Кристин Брюше, Manuel Vallade, Аделаид Леру, Океане Мозас, Армони Сандерс, Стефан Шиво.

Описание: Жюли живет в Париже. Она с лёгкостью находит работу, с лёгкостью теряет её. Однажды она встречает Бена, который приглашает её провести с ним лето на юге. Но вот что странно: откуда у Бена деньги, если он нигде толком не работает?



Доп. информация: Благодарность за исходник (DVD9) направляется Нордер-у и rulle1
Конвертация в DVDRip - Arle-kino



Качество видео: DVDRip
Формат видео: AVI

Видео: 688x368 (1.87:1), 25 fps, XviD build 50 ~1029 kbps avg, 0.16 bit/pixel
Аудио: 48 kHz, AC3 Dolby Digital, 2/0 (L,R) ch, ~192 kbps
GeneralComplete name : D:\Public\D'amour et d'eau fraiche (Isabelle Czajka, 2010) DVDRip [rus].aviFormat : AVIFormat/Info : Audio Video InterleaveFile size : 745 MiBDuration : 1 h 24 minOverall bit rate : 1 231 kb/sWriting application : VirtualDubMod 1.5.10.2 (build 2540/release)Writing library : VirtualDubMod build 2540/release

VideoID : 0Format : MPEG-4 VisualFormat profile : Advanced [email protected] settings, BVOP : 1Format settings, QPel : NoFormat settings, GMC : No warppointsFormat settings, Matrix : Default (MPEG)Codec ID : XVIDCodec ID/Hint : XviDDuration : 1 h 24 minBit rate : 1 029 kb/sWidth : 688 pixelsHeight : 368 pixelsDisplay aspect ratio : 1.85:1Frame rate : 25.000 FPSColor space : YUVChroma subsampling : 4:2:0Bit depth : 8 bitsScan type : ProgressiveCompression mode : LossyBits/(Pixel*Frame) : 0.163Stream size : 623 MiB (84%)Writing library : XviD 1.2.1 (UTC 2008-12-04)

AudioID : 1Format : AC-3Format/Info : Audio Coding 3Format settings, Endianness : BigCodec ID : 2000Duration : 1 h 24 minBit rate mode : ConstantBit rate : 192 kb/sChannel(s) : 2 channelsChannel positions : Front: L RSampling rate : 48.0 kHzFrame rate : 31.250 FPS (1536 SPF)Bit depth : 16 bitsCompression mode : LossyStream size : 116 MiB (16%)Alignment : Split accross interleavesInterleave, duration : 40 ms (1.00 video frame)Interleave, preload duratio : 500 msService kind : Complete Main


Трекер:  [ 12-Июл-2018 16:30 ]

  

Скачать .torrent

Размер .torrent файла 15 KB


Размер: 745 MB
Хэш (hash) релиза: cc3b905a0a36fa89681c1c20b0bb4e0e3038d603
Подписка на обновления:

Еще никто не оставлял запись к записи скачать торрент Жить одной любовью Любовь и свежая вода . Будь первым!

!Обратная связь