Randall Park | Business Spotlight (1) | The Last Man on Earth (48)

Скачать через торрент Острые предметы Sharp Objects Фильм бесплатно в хорошем качестве torrent

Скачивайте на UnionPeer.org фильмы через торрент без регистрации. Новинки кино в хорошем качестве через торрент. На UnionPeer.org можно скачать через торрент фильмы 2014 и 2015 годов. Самые новые фильмы.

Скачать торрент Острые предметы Sharp Objects бесплатно через .torrent фильм мультфильм сериал

Статистика раздачи
Размер:  1.08 GB   |    Зарегистрирован:  2 месяца 9 дней   |    .torrent скачан:  25 раз   |   
Раздают:  1  
   
загрузка...
 
Автор Сообщение

Galfimbul

avatar Galfimbul


Острые предметы / Sharp Objects
Год выпуска: 2018
Страна: США
Жанр: Триллер, драма, криминал, детектив
Продолжительность: ~01:00:00
Перевод: Профессиональный (дублированный) Amedia
Режиссёр: Жан-Марк Валле
В ролях: Эми Адамс, Патриша Кларксон, Крис Мессина, Мэтт Крэйвен, Генри Черни, Мигель Сандовал, Сидни Свини
Описание: Камилла Прикер, не особо удачливый репортер одной из не особо успешных газет Чикаго, мечтает о блестящей карьере. И вот девушке выпадает счастливый шанс, способный резко повысить ее журналистский статус, — Камиллу посылают корреспондентом в маленький городок, где жертвой маньяка стали несколько девочек. Камилла в этом городе родилась и выросла, но погружение в страшную реальность провинциальной жизни оборачивается для нее цепью кошмарных событий.

<div class="post-box-default">
<div class="post-box" style="border-color: #d2d2d2; background: #000000;">Ссылка на предыдущие и альтернативные раздачи</div>
</div>
Качество: WEB-DLRip (WEB-DL 1080p)
Формат: AVI
Видео: XviD, 720x400, 25 fps, ~1800 kbps
Аудио #1: 48 kHz, AC3 Dolby Digital, 3/2 (L,C,R,l,r) + LFE ch, ~384 kbps | Rus
Аудио #2: 48 kHz, AC3 Dolby Digital, 3/2 (L,C,R,l,r) + LFE ch, ~384 kbps | Eng
Субтитры: нет
Реклама: Отсутствует
Format : AVI
Format/Info : Audio Video Interleave
File size : 1.08 GiB
Duration : 1 h 0 min
Overall bit rate : 2 586 kb/s
Writing application : VirtualDubMod 1.5.10.2 (build 2540/release)
Writing library : VirtualDubMod build 2540/release

Video
ID : 0
Format : MPEG-4 Visual
Format profile : Advanced [email protected]
Format settings : BVOP1 / Custom Matrix
Format settings, BVOP : 1
Format settings, QPel : No
Format settings, GMC : No warppoints
Format settings, Matrix : Custom
Codec ID : XVID
Codec ID/Hint : XviD
Duration : 1 h 0 min
Bit rate : 1 803 kb/s
Width : 720 pixels
Height : 400 pixels
Display aspect ratio : 16:9
Frame rate : 25.000 FPS
Color space : YUV
Chroma subsampling : 4:2:0
Bit depth : 8 bits
Scan type : Progressive
Compression mode : Lossy
Bits/(Pixel*Frame) : 0.250
Stream size : 774 MiB (70%)
Writing library : XviD 73

Audio #1
ID : 1
Format : AC-3
Format/Info : Audio Coding 3
Codec ID : 2000
Duration : 1 h 0 min
Bit rate mode : Constant
Bit rate : 384 kb/s
Channel(s) : 6 channels
Channel positions : Front: L C R, Side: L R, LFE
Sampling rate : 48.0 kHz
Frame rate : 31.250 FPS (1536 SPF)
Bit depth : 16 bits
Compression mode : Lossy
Stream size : 165 MiB (15%)
Alignment : Split accross interleaves
Interleave, duration : 40 ms (1.00 video frame)
Interleave, preload duratio : 500 ms
Service kind : Complete Main

Audio #2
ID : 2
Format : AC-3
Format/Info : Audio Coding 3
Codec ID : 2000
Duration : 1 h 0 min
Bit rate mode : Constant
Bit rate : 384 kb/s
Channel(s) : 6 channels
Channel positions : Front: L C R, Side: L R, LFE
Sampling rate : 48.0 kHz
Frame rate : 31.250 FPS (1536 SPF)
Bit depth : 16 bits
Compression mode : Lossy
Stream size : 165 MiB (15%)
Alignment : Split accross interleaves
Interleave, duration : 40 ms (1.00 video frame)
Interleave, preload duratio : 500 ms
Service kind : Complete Main
<div class="sp-wrap">
<div class="sp-head folded">Скриншоты</div>
<div class="sp-body">
</div>
</div>
Внимание! Раздача ведётся путём добавления новых серий; при каждом добавлении создаётся новый торрент. Чтобы начать докачку новой серии, пользователям необходимо сделать следующее:
(1) остановить скачивание,
(2) удалить старый торрент у себя из клиента (старые серии удалять не надо),
(3) скачать новый торрент и запустить его у себя в клиенте вместо старого, при этом указать клиенту путь в старую папку куда и должно происходить скачивание новых серий.

Ваш клиент при этом должен произвести хеширование (проверку) старой папки (если не производит сам - помогите ему сделать это), и будет докачивать только те серии которых у вас ещё нет. Старые серии при этом не удаляются, а продолжают раздаваться!

Eсли вы уже удалили старые серии, то предотвратить повторную закачку старых серий можно, отжав галочку в соответствующих местах при запуске нового торрента. По возможности, желательно не удалять старые серии как можно дольше чтобы релизёр не столько продолжал раздавать старые серии, а смог сконцентрироваться на новых.



Трекер:  [ 12-Июл-2018 15:18 ]

  

Скачать .torrent

Размер .torrent файла 11 KB


Размер: 1.08 GB
Хэш (hash) релиза: 5d6602ad2a68052dea050bd3b38e3ceff3fbb91a
Подписка на обновления:

Торренты, похожие на Острые предметы Sharp Objects скачать торрент

Форум Название Автор Размер S L Добавлен
Зарубежные сериалы ·%· Острые предметы / Sharp Objects / Сезон: 1 / Серии: 1 из 8 (Жан-Марк Валле) [2018, США, триллер, драма, детектив, WEB-DLRip] MVO (Jaskier) + Original Galfimbul 890802176850 MB 0 0 1531520292

01:18

14-Июл-18

Зарубежные сериалы ·%· Острые предметы / Sharp Objects / Сезон: 1 / Серии: 1 из 8 (Жан-Марк Валле) [2018, США, триллер, драма, детектив., WEB-DL 720p] MVO (Jaskier) + Original + Sub Eng Galfimbul 13379034161.25 GB 0 0 1531484299

15:18

13-Июл-18

Зарубежные сериалы ·%· Острые предметы / Sharp Objects / Сезон: 1 / Серии: 1 из 8 (Жан-Марк Валле) [2018, США, триллер, драма, криминал, детектив., WEB-DLRip] MVO (Jaskier) + Original Galfimbul 787130368751 MB 0 0 1531484286

15:18

13-Июл-18

Зарубежные сериалы ·%· Острые предметы / Sharp Objects / Сезон: 1 / Серии: 1 из 8 (Жан-Марк Валле) [2018, США, триллер, драма, детектив, WEB-DLRip] DVO (Gears Media) + Original Galfimbul 890802176850 MB 0 0 1531239489

19:18

10-Июл-18

Зарубежные сериалы ·%· Острые предметы / Sharp Objects / Сезон: 1 / Серии: 1 из 8 (Жан-Марк Валле) [2018, США, триллер, драма, детектив, WEB-DL 720p] DVO (Gears Media) + Original Galfimbul 14580618381.36 GB 0 0 1531163911

22:18

9-Июл-18

Зарубежные сериалы ·%· Острые предметы / Sharp Objects / Сезон: 1 / Серии: 1 из 8 (Жан-Марк Валле) [2018, США, триллер, драма, детектив, WEB-DLRip] DVO (Gears Media) + Original Galfimbul 798241010761 MB 0 0 1531163897

22:18

9-Июл-18

Зарубежные сериалы ·%· Острые предметы / Sharp Objects / Сезон: 1 / Серии: 1 из 8 (Жан-Марк Валле) [2018, США, Триллер, драма, детектив, WEBRip] MVO (Amedia) + Original Galfimbul 797009920760 MB 0 0 1531147687

17:48

9-Июл-18

Зарубежные сериалы ·%· Острые предметы / Sharp Objects / Сезон: 1 / Серии: 1-3 из 8 (Жан-Марк Валле) [2018, США, Триллер, драма, криминал, детектив, WEB-DL 1080p] MVO (AlexFilm) + Original + Subs (Eng) Galfimbul 1312168835612.22 GB 0 0 1532666903

07:48

27-Июл-18

Зарубежные сериалы ·%· Острые предметы / Sharp Objects / Сезон: 1 / Серии: 1-2 из 8 (Жан-Марк Валле) [2018, США, триллер, драма, криминал, детектив, WEBRip 720p] MVO (AlexFilm) + Original + Sub (eng) Galfimbul 24911334162.32 GB 0 0 1532206093

23:48

21-Июл-18

Еще никто не оставлял запись к записи скачать торрент Острые предметы Sharp Objects . Будь первым!

!Обратная связь