A Dark Knight: One Bad Day | Key & Peele | Everwood

Скачать через торрент Гинтама: Джамп бесплатно Аниме Все серии на русском torrent

Статистика раздачи
Размер:  891 MB   |    Зарегистрирован:  4 дня   |    .torrent скачан:  11 раз   |   
Раздают:  1  
   
загрузка...
 
Автор Сообщение

Galfimbul

avatar Galfimbul



Страна: Япония
Год выпуска: 2005
Жанр: комедия, пародия, сёнэн
Тип: Special
Продолжительность: 1 эп, ~33 мин
Режиссер: Такамацу Синдзи
Студия: Sunrise

Субтитры:
1: полные/надписи
rovego (перевод) Dez (оформление)

Озвучка:
1: одноголосая Lisek (муж)
Порядок просмотра:
1: Gintama TV 1 (не моя раздача, только сабы, пока тут)
2: Gintama TV 2
3: Gintama TV 3
4: Gintama TV 4
5: Gintama TV 5
6: Gintama TV 6
7: Gintama TV 7
8: Gintama TV 8
ОВА, Фильмы и Спешалы:
1: Gintama TV 1 Special 1 - эта раздача
2: Gintama TV 1 Special 2
3: Gintama TV 1 Special 3 (не моя раздача, только сабы, пока тут)
4: Gintama Movie 1
5: Gintama Movie 1 Specials (не моя раздача, только сабы, пока тут)
6: Gintama Movie 2
7: Gintama OVA 1 (не моя раздача, только сабы, пока тут)
8: Gintama TV 4 Special
9: Gintama OVA 2
Информационные ссылки: MAL | [url=]World Art[/url] | AniDB
Описание: Абсурдистская фантастическо-самурайская пародийная комедия о приключениях фрилансеров в псевдо-средневековом Эдо. Захватив Землю, пришельцы Аманто запретили ношение мечей, единственный, в ком ещё жив подлинно японский дух – самоуверенный сластёна Гинтоки Саката. Неуклюжий очкарик Симпати нанялся к нему в ученики. Третьим в их команде стала прелестная Кагура из сильнейшей во вселенной семьи Ятудзоку, а с ней её питомец Садахару – пёсик размером с бегемота, обладающий забавной привычкой грызть головы всем, кто под морду подвернётся. Они называют себя «мастерами на все руки» и выполняют любые заказы – главное, чтобы заплатили.

Кроме инопланетян с ушками, бандитов со шрамами, самураев с бокэнами, девушек-ниндзя с натто и странных существ, в «Гинтаме» встречаются также Синсэнгуми, состоящие из придурковатых юношей в европейской одежде. Высмеиванию подвергается множество штампов, пародируется «Блич», «Ковбой Бибоп» и многие другие известные сериалы. Юмор колеблется от «сортирного» до «тонкой иронии», в целом это весьма «зубастая» комедия, лишённая каких-либо рамок и ограничений.

© Расселл Д. Джонс (World Art)
Качество: DVDRip
Тип видео: Без хардсаба, Без линковки
Автор рипа: moodperson [Yousei-raws]
Формат видео: MKV
Главы: присутствуют
Совместимость с бытовыми плеерами: нет
Видео: х264, 8 bit, 768x576, ~2932 kbps, 24.357 fps
Аудио JAP: FLAC, ~667 kbps, 48.0 kHz, 2 ch (в составе контейнера)
Аудио RUS (1): AAC, 192 kbps, 48.0 kHz, 2 ch (внешними файлами)
Субтитры RUS (1): ASS (внешними файлами)
<div class="sp-wrap">
<div class="sp-head folded">Media Info</div>
<div class="sp-body">

GeneralUnique ID : 118888499233669093413697428174765214793 (0x5971179203708FDEF125C00966AECC49)Complete name : E:\Раздачи\Gintama TV 1 Sp 1\[S01] Gintama TV 1 Sp 1 серия.mkvFormat : MatroskaFormat version : Version 4 / Version 2File size : 845 MiBDuration : 32 min 49 sOverall bit rate mode : VariableOverall bit rate : 3 601 kb/sMovie name : Gintama TV 1 Sp 1 серияEncoded date : UTC 2018-07-12 09:47:16Writing application : mkvmerge v24.0.0 ('Beyond The Pale') 64-bitWriting library : libebml v1.3.6 + libmatroska v1.4.9

VideoID : 1Format : AVCFormat/Info : Advanced Video CodecFormat profile : [email protected] settings, CABAC : YesFormat settings, RefFrames : 16 framesCodec ID : V_MPEG4/ISO/AVCDuration : 32 min 49 sBit rate : 2 887 kb/sWidth : 768 pixelsHeight : 576 pixelsDisplay aspect ratio : 4:3Frame rate mode : VariableFrame rate : 24.357 FPSOriginal frame rate : 23.976 (24000/1001) FPSColor space : YUVChroma subsampling : 4:2:0Bit depth : 8 bitsScan type : ProgressiveBits/(Pixel*Frame) : 0.268Stream size : 688 MiB (81%)Title : moodperson [Yousei-raws]Writing library : x264 core 112 r1867 22bfd31Encoding settings : cabac=1 / ref=16 / deblock=1:-1:-1 / analyse=0x3:0x133 / me=umh / subme=9 / psy=1 / psy_rd=0.80:0.00 / mixed_ref=1 / me_range=24 / chroma_me=1 / trellis=2 / 8x8dct=1 / cqm=0 / deadzone=21,11 / fast_pskip=1 / chroma_qp_offset=-2 / threads=18 / sliced_threads=0 / nr=0 / decimate=0 / interlaced=0 / constrained_intra=0 / bframes=12 / b_pyramid=2 / b_adapt=2 / b_bias=0 / direct=3 / weightb=1 / open_gop=0 / weightp=2 / keyint=250 / keyint_min=23 / scenecut=40 / intra_refresh=0 / rc=2pass / mbtree=0 / bitrate=2887 / ratetol=1.0 / qcomp=0.80 / qpmin=10 / qpmax=27 / qpstep=4 / cplxblur=20.0 / qblur=0.5 / ip_ratio=1.40 / pb_ratio=1.30 / aq=1:0.90Language : JapaneseDefault : YesForced : No

AudioID : 2Format : FLACFormat/Info : Free Lossless Audio CodecCodec ID : A_FLACDuration : 32 min 48 sBit rate mode : VariableBit rate : 667 kb/sChannel(s) : 2 channelsChannel positions : Front: L RSampling rate : 48.0 kHzFrame rate : 11.719 FPS (4096 SPF)Bit depth : 16 bitsStream size : 156 MiB (19%)Title : [Original]Writing library : libFLAC 1.2.0 (UTC 2007-07-15)Language : JapaneseDefault : YesForced : No

Menu00:00:00.000 : ru:Часть А00:01:29.381 : ru:Часть Б00:05:15.649 : ru:Часть В00:06:48.450 : ru:Интро00:06:56.124 : ru:Часть Г00:07:43.588 : ru:Часть Д00:16:00.293 : ru:Часть Е00:17:22.500 : ru:Часть Ж00:27:43.871 : ru:Эндинг00:29:49.079 : ru:Часть З00:30:53.351 : ru:Часть И00:32:29.990 : ru:Аутро
File: E:\Раздачи\Gintama TV 1 Sp 1\[S01] Gintama TV 1 Sp 1 серия.mkv Duration: 00:32:49 (1969.01) Track #1: video (moodperson [Yousei-raws]) lang: jpn (2) codc: V_MPEG4/ISO/AVC -> H264/AVC (22) reso: 768x576 -> Unknown (aka not common) fram: hybrid (vfr) rate: 2932 kbps (2932.32) dura: 00:32:49 (1968.97) size: 688.27 MB (721704046) Track #2: audio ([Original]) lang: jpn -> Japanese (2) codc: A_FLAC -> Other (15) chan: 2 -> Stereo samp: 48000 Hz rate: 667 kbps (666.76) dura: 00:32:49 (1968.90) size: 156.50 MB (164097845) Sizes: (check sanity) disk: 845.25 MB (886311943) trac: 844.77 MB (885801891) [based on track size] bitr: 844.77 MB (885807674) [based on bitrate] tdif: 498.10 KB (510052) 0.05% bdif: 492.45 KB (504268) 0.05%
</div>
</div>
1. Начало очень важно, попробуй его отсрочить
...2022719
...3288436
- наличие озвучки

...1421448
- наличие субтитров, лучше качество видео http://slowpics.org/comparison/42eed367-ed16-49a5-9877-97d6ab06f349

В данном релизе озвучка и субтитры выложены внешними файлами.
Для просмотра на ПК

с озвучкой: переместите mka файлы из папки "Rus Sound -> [Команда/ники дабберов]" и ass файлы из папки "Rus Subs -> [Команда/ники сабберов] Надписи" (по желанию) в папку с видео.
с субтитрами: переместите ass файлы из папки "Rus Subs -> [Команда/ники сабберов] Полные" в папку с видео.

90% современных плееров подключат дорожки автоматически. Так же рекомендуется указать rus и(ли) ru, как язык по умолчанию для выбора дорожек, в настройках вашего плеера и(ли) рендера. Подробнее о настройке плеера можно прочитать тут.
Если релиз содержит 10 битное видео, и у вас проблемы с качеством картинки, инструкцию по просмотру можно найти тут.
Все видео файлы в моих релизах пересобираются. Вы не сможете раздавать их на других раздачах.
Если в релизе есть раздел "Порядок просмотра":

Скачайте все части тайтла.
Поместите все раздачи (видео и необходимые дорожки) в одну папку.
Все сезоны и серии будут в необходимом порядке для просмотра.


Трекер:  [ 12-Июл-2018 15:01 ]

  

Скачать .torrent

Размер .torrent файла 36 KB


Размер: 891 MB
Хэш (hash) релиза: f8c6392338e863ee54f365fef5ac27a59209bb3e
Подписка на обновления:

Торренты, похожие на Гинтама: Джамп скачать торрент

Форум Название Автор Размер S L Добавлен
Аниме | HD Rips ·%· Гинтама: Джамп (Спешл-5) / Gintama: Jump Festa 2015 [Special] [1 из 1] [Без хардсаба] [RUS(ext), JAP, SUB] [2015, комедия, пародия, сёнэн, WEBRip] [1080p] Galfimbul 329497456314 MB 0 0 1531386073

12:01

12-Июл-18

Еще никто не оставлял запись к записи скачать торрент Гинтама: Джамп . Будь первым!

!Обратная связь