Spark, una aventura espacial | Heavy Object | Re:Помощ от модератор (администратор)

Скачать через торрент Странный ангел Strange Angel Фильм бесплатно в хорошем качестве torrent

Скачивайте на UnionPeer.org фильмы через торрент без регистрации. Новинки кино в хорошем качестве через торрент. На UnionPeer.org можно скачать через торрент фильмы 2014 и 2015 годов. Самые новые фильмы.

Скачать торрент Странный ангел Strange Angel бесплатно через .torrent фильм мультфильм сериал

Статистика раздачи
Размер:  1.59 GB   |    Зарегистрирован:  6 дней   |    .torrent скачан:  18 раз   |   
Раздают:  1  
   
загрузка...
 
Автор Сообщение

Galfimbul

avatar Galfimbul


Странный ангел / Strange Angel

Год выпуска: 2018
Страна: США
Жанр: Драма, мистика, научная фантастика
Продолжительность: 00:55:00

Перевод: Профессиональный (двухголосый закадровый) [Gears Media]

Режиссёр: Дэвид Лоури, Нельсон МакКормик, Бен Уитли
В ролях: Питер Марк Кендалл, Джек Рейнор, Майкл Гэстон, Дэн Донохью, Рэнди Оглсби, Фил Абрамс, Курт Ёла, Роб Забрески, Коллин Фой

Описание: Джек Парсонс — знаменитый инженер, химик и оккультист. В 1930-х молодой человек, с детства увлекавшийся реактивным движением, начал работать уборщиком на химическом заводе в Лос-Анджелесе. Вскоре благодаря врожденному таланту и амбициям Парсонс смог положить начало американскому ракетостроению и стал одним из ключевых основателей Лаборатории реактивного движения. Однако интересы Парсона не ограничивались химией. В начале 1940-х, после кратковременного периода увлечения марксизмом, Парсонс заинтересовался учениями английского оккультиста Алистера Кроули и вместе с женой Хелен присоединился к калифорнийскому отделению ордена восточных тамплиеров.

Ссылка на предыдущие и альтернативные раздачи:http://rutracker.org/forum/tracker.php?g=foreign_se...=Strange%20Angel

Сэмпл: http://multi-up.com/1203611

Качество: WEB-DLRip
Формат: AVI
Видео: XviD, 720x400 at 23.976 fps, ~1500 kbps avg
Аудио1: Russian, MP3, 48 kHz, 2 ch, 128 kbps
Аудио2: English, MP3, 48 kHz, 2 ch, 128 kbps
Субтитры: нет
Реклама: аудио (два раза, в начале и конце, по 12 сек.)
General
Format : AVI
Format/Info : Audio Video Interleave
File size : 582 MiB
Duration : 54 min 27 s
Overall bit rate : 1 494 kb/s
Writing application : Lavf57.29.101

Video
ID : 0
Format : xvid
Codec ID : xvid
Duration : 54 min 27 s
Bit rate : 1 217 kb/s
Width : 720 pixels
Height : 400 pixels
Display aspect ratio : 16:9
Frame rate : 23.976 (24000/1001) FPS
Scan type : Progressive
Bits/(Pixel*Frame) : 0.176
Stream size : 474 MiB (81%)

Audio #1
ID : 1
Format : MPEG Audio
Format version : Version 1
Format profile : Layer 3
Format settings : Joint stereo / MS Stereo
Codec ID : 55
Codec ID/Hint : MP3
Duration : 54 min 27 s
Bit rate mode : Constant
Bit rate : 128 kb/s
Channel(s) : 2 channels
Sampling rate : 48.0 kHz
Compression mode : Lossy
Stream size : 49.9 MiB (9%)
Alignment : Aligned on interleaves
Interleave, duration : 24 ms (0.58 video frame)
Interleave, preload duration : 24 ms
Title : Gears Media
Writing library : LAME3.99.5

Audio #2
ID : 2
Format : MPEG Audio
Format version : Version 1
Format profile : Layer 3
Format settings : Joint stereo / MS Stereo
Codec ID : 55
Codec ID/Hint : MP3
Duration : 54 min 27 s
Bit rate mode : Constant
Bit rate : 128 kb/s
Channel(s) : 2 channels
Sampling rate : 48.0 kHz
Compression mode : Lossy
Stream size : 49.9 MiB (9%)
Alignment : Aligned on interleaves
Interleave, duration : 24 ms (0.58 video frame)
Interleave, preload duration : 24 ms
Writing library : LAME3.99.
<div class="sp-wrap">
<div class="sp-head folded">Внимание! Раздача ведётся путём добавления новых серий</div>
<div class="sp-body">[b]Внимание! Раздача ведётся путём добавления новых серий; при каждом добавлении создаётся новый торрент. Чтобы начать докачку новой серии, пользователям необходимо сделать следующее:
(1) остановить скачивание,
(2) удалить старый торрент у себя из клиента (старые серии удалять не надо),
(3) скачать новый торрент и запустить его у себя в клиенте вместо старого, при этом указать клиенту путь в старую папку куда и должно происходить скачивание новых серий.

Eсли вы уже удалили старые серии, то предотвратить повторную закачку старых серий можно, отжав галочку в соответствующих местах при запуске нового торрента. По возможности, желательно не удалять старые серии как можно дольше чтобы релизёр не столько продолжал раздавать старые серии, а смог сконцентрироваться на новых.</div>
</div>

Трекер:  [ 12-Июл-2018 13:18 ]

  

Скачать .torrent

Размер .torrent файла 64 KB


Размер: 1.59 GB
Хэш (hash) релиза: 9bddd4131af7689b8f8895f96537820113cfab41
Подписка на обновления:

Еще никто не оставлял запись к записи скачать торрент Странный ангел Strange Angel . Будь первым!

!Обратная связь