Family Guy | Eu, Sara, me confesso | Billionaire(7)

Скачать через торрент Острые предметы Sharp Objects Фильм бесплатно в хорошем качестве torrent

Скачивайте на UnionPeer.org фильмы через торрент без регистрации. Новинки кино в хорошем качестве через торрент. На UnionPeer.org можно скачать через торрент фильмы 2014 и 2015 годов. Самые новые фильмы.

Скачать торрент Острые предметы Sharp Objects бесплатно через .torrent фильм мультфильм сериал

Статистика раздачи
Размер:  4.49 GB   |    Зарегистрирован:  6 дней   |    .torrent скачан:  25 раз   |   
Раздают:  1  
   
загрузка...
 
Автор Сообщение

Galfimbul

avatar Galfimbul


Острые предметы / Sharp Objects / Сезон 1
Год выпуска: 2018
Страна: США
Жанр: триллер, драма, криминал, детектив
Продолжительность: 01:00:00

Перевод: Профессиональный (многоголосый закадровый) Amedia
Студия озвучания: "Кравец"

Режиссёр: Жан-Марк Валле
В ролях: Эми Адамс, Патриша Кларксон, Крис Мессина, Eliza Scanlen, Мэтт Крэйвен, Генри Черни, Мигель Сандовал, Violet Brinson, April Brinson, Сидни Свини

Описание: Мини-сериал от режиссера "Большой маленькой лжи" Жан-Марка Валле, снятый по мотивам романа автора "Исчезнувшей" Гиллиан Флинн. Криминальный репортер Камилла Прикер (номинант на "Оскар" Эми Адамс) возвращается в родной провинциальный город, чтобы расследовать убийства двух маленьких девочек. Пытаясь сложить психологический пазл из своего прошлого, она обнаруживает, что у нее с юными жертвами слишком много общего.

<div class="post-box-default">
<div class="post-box" style="border-color: #d2d2d2; background: #000000;">Сэмпл</div>
</div>
<div class="post-box-default">
<div class="post-box" style="border-color: #d2d2d2; background: #000000;">Ссылка на предыдущие и альтернативные раздачи</div>
</div>
Качество: WEB-DL 1080p (AMAZON)
Контейнер: MKV
Видео: H.264/AVC, 1920x1080p (1.78:1), 25 fps, ~9947 kbps, ~0.192 bit/pixel
Аудио №1: Русский AC3 5.1, 48 kHz, 384 kbps
Аудио №2: Английский AC3 5.1, 48 kHz, 384 kbps
Субтитры: Русские (Amedia), Английские, Английские (SDH)
Реклама: отсутствует
01. Vanish / ИСЧЕЗНОВЕНИЕ (2018-07-08)
02. Dirt /  (2018-07-15)
03. Fix /  (2018-07-22)
04. Ripe /  (2018-07-29)
05. Closer /  (2018-08-05)
06. Cherry /  (2018-08-12)
07. Falling /  (2018-08-19)
08. Milk /  (2018-08-26)
General
Unique ID                                : 246689798144971804602331307209228372277 (0xB996BA17932C870C9EA6591F403D4935)
Complete name                            : Sharp.Objects.2018.S01.1080p.AMZN.WEB-DL.DD5.1.H.264.Amedia.PAL\Sharp.Objects.S01E01.Vanish.1080p.AMZN.WEB-DL.DD5.1.H.264.Amedia.PAL.mkv
Format                                   : Matroska
Format version                           : Version 4 / Version 2
File size                                : 4.49 GiB
Duration                                 : 1 h 0 min
Overall bit rate                         : 10.7 Mb/s
Movie name                               : Sharp Objects, Season 1 / Vanish
Track name/Position                      : 1
Track name/Total                         : 8
Description                              : Camille Preaker, a reporter for the St. Louis Chronicle, is sent to her rural hometown of Wind Gap to file a story about two missing girls, one of whom was found dead and presumed murdered. The assignment, which reunites Camille with her overbearing mother Adora, stepfather Alan Crellin and half-sister Amma, brings back traumatic childhood memories, including the death of Camille's younger sister Marian when both were schoolgirls. Tormented by her past and seeking refuge through alcohol, Camille manages to join Detective Richard Willis and Chief of Police Vickery in following leads around town that might shed light on the fate of the two missing girls.
Released date                            : 2018-07-09
Encoded date                             : UTC 2018-07-12 07:20:43
Writing application                      : mkvmerge v24.0.0 ('Beyond The Pale') 64-bit
Writing library                          : libebml v1.3.6 + libmatroska v1.4.9
Cover                                    : Yes
Attachments                              : small_cover.jpg / cover.jpg

Video
ID                                       : 1
Format                                   : AVC
Format/Info                              : Advanced Video Codec
Format profile                           : [email protected]
Format settings                          : CABAC / 4 Ref Frames
Format settings, CABAC                   : Yes
Format settings, RefFrames               : 4 frames
Codec ID                                 : V_MPEG4/ISO/AVC
Duration                                 : 1 h 0 min
Bit rate                                 : 9 947 kb/s
Width                                    : 1 920 pixels
Height                                   : 1 080 pixels
Display aspect ratio                     : 16:9
Frame rate mode                          : Constant
Frame rate                               : 25.000 FPS
Color space                              : YUV
Chroma subsampling                       : 4:2:0
Bit depth                                : 8 bits
Scan type                                : Progressive
Bits/(Pixel*Frame)                       : 0.192
Stream size                              : 4.17 GiB (93%)
Language                                 : English
Default                                  : Yes
Forced                                   : No
Color range                              : Limited
Color primaries                          : BT.709
Transfer characteristics                 : BT.709
Matrix coefficients                      : BT.709

Audio #1
ID                                       : 2
Format                                   : AC-3
Format/Info                              : Audio Coding 3
Format settings, Endianness              : Big
Codec ID                                 : A_AC3
Duration                                 : 1 h 0 min
Bit rate mode                            : Constant
Bit rate                                 : 384 kb/s
Channel(s)                               : 6 channels
Channel positions                        : Front: L C R, Side: L R, LFE
Sampling rate                            : 48.0 kHz
Frame rate                               : 31.250 FPS (1536 SPF)
Bit depth                                : 16 bits
Compression mode                         : Lossy
Stream size                              : 165 MiB (4%)
Title                                    : Amedia / Russian AC3 5.1
Language                                 : Russian
Service kind                             : Complete Main
Default                                  : Yes
Forced                                   : No

Audio #2
ID                                       : 3
Format                                   : AC-3
Format/Info                              : Audio Coding 3
Format settings, Endianness              : Big
Codec ID                                 : A_AC3
Duration                                 : 1 h 0 min
Bit rate mode                            : Constant
Bit rate                                 : 384 kb/s
Channel(s)                               : 6 channels
Channel positions                        : Front: L C R, Side: L R, LFE
Sampling rate                            : 48.0 kHz
Frame rate                               : 31.250 FPS (1536 SPF)
Bit depth                                : 16 bits
Compression mode                         : Lossy
Stream size                              : 165 MiB (4%)
Title                                    : English AC3 5.1
Language                                 : English
Service kind                             : Complete Main
Default                                  : No
Forced                                   : No

Text #1
ID                                       : 4
Format                                   : UTF-8
Codec ID                                 : S_TEXT/UTF8
Codec ID/Info                            : UTF-8 Plain Text
Duration                                 : 53 min 48 s
Bit rate                                 : 77 b/s
Count of elements                        : 589
Stream size                              : 30.7 KiB (0%)
Title                                    : Amedia
Language                                 : Russian
Default                                  : No
Forced                                   : No

Text #2
ID                                       : 5
Format                                   : UTF-8
Codec ID                                 : S_TEXT/UTF8
Codec ID/Info                            : UTF-8 Plain Text
Duration                                 : 57 min 39 s
Bit rate                                 : 45 b/s
Count of elements                        : 679
Stream size                              : 19.1 KiB (0%)
Language                                 : English
Default                                  : No
Forced                                   : No

Text #3
ID                                       : 6
Format                                   : UTF-8
Codec ID                                 : S_TEXT/UTF8
Codec ID/Info                            : UTF-8 Plain Text
Duration                                 : 59 min 44 s
Bit rate                                 : 52 b/s
Count of elements                        : 824
Stream size                              : 23.0 KiB (0%)
Title                                    : SDH
Language                                 : English
Default                                  : No
Forced                                   : No
Когда раздача ведётся путём добавления новых серий, при каждом добавлении создётся новый торрент. Чтобы начать докачку новой серии, пользователям необходимо сделать следующее:
(1) остановить скачивание,
(2) удалить старый торрент у себя из клиента (старые серии удалять не надо),
(3) скачать новый торрент и запустить его у себя в клиенте вместо старого, при этом указать клиенту путь в старую папку, куда и должно происходить скачивание новых серий.
Ваш клиент при этом должен произвести хеширование (проверку) старой папки (если не производит сам - помогите ему сделать это), и будет докачивать только те серии, которых у вас ещё нет. Старые серии при этом не удаляются, а продолжают раздаваться!
Eсли вы уже удалили старые серии, то предотвратить повторную закачку старых серий можно, отжав галочку в соответсвующих местах при запуске нового торрента. По возможности, желательно не удалять старые серии как можно дольше, чтобы релизёр не столько продолжал раздавать старые серии, а смог сконцентрироваться на новых.


Трекер:  [ 12-Июл-2018 12:18 ]

  

Скачать .torrent

Размер .torrent файла 45 KB


Размер: 4.49 GB
Хэш (hash) релиза: 611be007e89c59e9392d60ff72b2c80f7ecb0a2c
Подписка на обновления:

Торренты, похожие на Острые предметы Sharp Objects скачать торрент

Форум Название Автор Размер S L Добавлен
Зарубежные сериалы ·%· Острые предметы / Sharp Objects / Сезон: 1 / Серии: 1-1 (8) (Жан-Марк Валле) [2018, США, триллер, драма, криминал, детектив, WEB-DL 720p] MVO (Amedia) + Original + Sub (rus, eng) Galfimbul 13234010471.23 GB 0 0 1531387105

12:18

12-Июл-18

Зарубежные сериалы ·%· Острые предметы / Sharp Objects / Сезон: 1 / Серии: 1 из 8 (Жан-Марк Валле) [2018, США, триллер, драма, детектив, WEB-DLRip] MVO (Jaskier) + Original Galfimbul 890802176850 MB 0 0 1531520292

01:18

14-Июл-18

Зарубежные сериалы ·%· Острые предметы / Sharp Objects / Сезон: 1 / Серии: 1 из 8 (Жан-Марк Валле) [2018, США, триллер, драма, детектив., WEB-DL 720p] MVO (Jaskier) + Original + Sub Eng Galfimbul 13379034161.25 GB 0 0 1531484299

15:18

13-Июл-18

Зарубежные сериалы ·%· Острые предметы / Sharp Objects / Сезон: 1 / Серии: 1 из 8 (Жан-Марк Валле) [2018, США, триллер, драма, криминал, детектив., WEB-DLRip] MVO (Jaskier) + Original Galfimbul 787130368751 MB 2 0 1531484286

15:18

13-Июл-18

Зарубежные сериалы ·%· Острые предметы / Sharp Objects / Сезон: 1 / Серии: 1 из 8 (Жан-Марк Валле) [2018, США, Триллер, драма, криминал, детектив, WEB-DLRip] MVO (Amedia) + Original Galfimbul 11640934401.08 GB 0 0 1531397887

15:18

12-Июл-18

Зарубежные сериалы ·%· Острые предметы / Sharp Objects / Сезон: 1 / Серии: 1 из 8 (Жан-Марк Валле) [2018, США, триллер, драма, детектив, WEB-DLRip] DVO (Gears Media) + Original Galfimbul 890802176850 MB 0 0 1531239489

19:18

10-Июл-18

Зарубежные сериалы ·%· Острые предметы / Sharp Objects / Сезон: 1 / Серии: 1 из 8 (Жан-Марк Валле) [2018, США, триллер, драма, детектив, WEB-DL 720p] DVO (Gears Media) + Original Galfimbul 14580618381.36 GB 0 0 1531163911

22:18

9-Июл-18

Зарубежные сериалы ·%· Острые предметы / Sharp Objects / Сезон: 1 / Серии: 1 из 8 (Жан-Марк Валле) [2018, США, триллер, драма, детектив, WEB-DLRip] DVO (Gears Media) + Original Galfimbul 798241010761 MB 0 0 1531163897

22:18

9-Июл-18

Зарубежные сериалы ·%· Острые предметы / Sharp Objects / Сезон: 1 / Серии: 1 из 8 (Жан-Марк Валле) [2018, США, Триллер, драма, детектив, WEBRip] MVO (Amedia) + Original Galfimbul 797009920760 MB 0 0 1531147687

17:48

9-Июл-18

Еще никто не оставлял запись к записи скачать торрент Острые предметы Sharp Objects . Будь первым!

!Обратная связь