Animes Yowamushi Pedal 4x24 | The Carbonaro Effect S03E04 720p HDTV x264-W4F [eztv] | Homes Under The Hammer S20E49 HDTV x264-NORiTE [eztv]

Скачать через торрент Аванпост The Outpost Фильм бесплатно в хорошем качестве torrent

Скачивайте на UnionPeer.org фильмы через торрент без регистрации. Новинки кино в хорошем качестве через торрент. На UnionPeer.org можно скачать через торрент фильмы 2014 и 2015 годов. Самые новые фильмы.

Скачать торрент Аванпост The Outpost бесплатно через .torrent фильм мультфильм сериал

Статистика раздачи
Размер:  3.26 GB   |    Зарегистрирован:  6 дней   |    .torrent скачан:  41 раз   |   
Раздают:  1  
   
загрузка...
 
Автор Сообщение

Galfimbul

avatar Galfimbul



Аванпост / The Outpost
Год выпуска • 2018
Страна • США
Жанр • фэнтези, приключения
Продолжительность • ~44 мин.
Перевод
<div style="margin-left: 2em" class="post-ul">• Любительский (многоголосый, закадровый) "OMSKBIRD records"</div>
Создатель • Джейсон Фоллер
В ролях • Джессика Грин, Джейк Стормоен, Эндрю Ховард, Имоджен Уотерхаус, Ананд Десаи-Барочиа, Робин Малкольм, Кристиан Нэрн
Описание • В центре сюжета оказывается представительница расы Чернокровок — Тэлон. Она ищет убийц своей семьи, следы которых ведут в крепость, находящуюся на границе обитаемых земель. Во время путешествия девушка обнаруживает у себя сверхъестественные способности, которыми ей придется овладеть, чтобы спасти себя и защитить мир от фанатичного религиозного диктатора.
Реклама: аудио (два раза, в начале и конце, по 15 сек.)
Качество: WEBRip 1080p
Формат: MKV
Видео: MPEG-4 AVC / ~ 10 Мbps / 1920х1080p / 23.976 fps / 16:9 / ~ 0.209 bit/pixel / High Level 4.0
Аудио:
Русский / Dolby Digital 2.0 / 48 kHz / 192 kbps
English / Dolby Digital 2.0 / 48 kHz / 192 kbps
<div style="margin-left: 2em" class="post-ul">Ссылки • | Сэмпл | | |</div>
General
Unique ID : 190527646381835407697037852966470354754 (0x8F564A3982AD426E8D0B4A1726CD0742)
Complete name : H:\Мои Документы\Видео\РАЗДАЧИ\АУТПОСТ\The Outpost S01 WEBRip 1080p (OMSKBIRD)\The Outpost S01E01 WEBRip 1080p (OMSKBIRD).mkv
Format : Matroska
Format version : Version 2
File size : 3.26 GiB
Duration : 42 min 26 s
Overall bit rate : 11.0 Mb/s
Encoded date : UTC 2018-07-12 08:08:15
Writing application : mkvmerge v4.0.0 ('The Stars were mine') сборка от Jun 6 2010 16:18:42
Writing library : libebml v1.0.0 + libmatroska v1.0.0

Video
ID : 1
Format : AVC
Format/Info : Advanced Video Codec
Format profile : [email protected]
Format settings, CABAC : Yes
Format settings, RefFrames : 4 frames
Codec ID : V_MPEG4/ISO/AVC
Duration : 42 min 26 s
Bit rate : 10.4 Mb/s
Width : 1 920 pixels
Height : 1 080 pixels
Display aspect ratio : 16:9
Frame rate mode : Constant
Frame rate : 23.976 (24000/1001) FPS
Color space : YUV
Chroma subsampling : 4:2:0
Bit depth : 8 bits
Scan type : Progressive
Bits/(Pixel*Frame) : 0.209
Stream size : 3.08 GiB (95%)
Default : No
Forced : No
Color range : Limited
Color primaries : BT.709
Transfer characteristics : BT.709
Matrix coefficients : BT.709

Audio #1
ID : 2
Format : AC-3
Format/Info : Audio Coding 3
Format settings, Endianness : Big
Codec ID : A_AC3
Duration : 42 min 26 s
Bit rate mode : Constant
Bit rate : 192 kb/s
Channel(s) : 2 channels
Channel positions : Front: L R
Sampling rate : 48.0 kHz
Frame rate : 31.250 FPS (1536 SPF)
Bit depth : 16 bits
Compression mode : Lossy
Stream size : 58.3 MiB (2%)
Language : Russian
Service kind : Complete Main
Default : Yes
Forced : No

Audio #2
ID : 3
Format : AC-3
Format/Info : Audio Coding 3
Format settings, Endianness : Big
Codec ID : A_AC3
Duration : 42 min 26 s
Bit rate mode : Constant
Bit rate : 192 kb/s
Channel(s) : 2 channels
Channel positions : Front: L R
Sampling rate : 48.0 kHz
Frame rate : 31.250 FPS (1536 SPF)
Bit depth : 16 bits
Compression mode : Lossy
Stream size : 58.3 MiB (2%)
Language : English
Service kind : Complete Main
Default : No
Forced : No
Внимание! Раздача ведётся путём добавления новых серий; при каждом добавлении создётся новый торрент. Чтобы начать докачку новой серии, пользователям необходимо сделать следующее:
Остановить скачивание.
Удалить старый торрент у себя из клиента (старые серии удалять не надо).
Скачать новый торрент и запустить его у себя в клиенте вместо старого, при этом указать клиенту путь в старую папку куда и должно происходить скачивание новых серий.
Ваш клиент при этом должен произвести хеширование (проверку) старой папки (если не производит сам - помогите ему сделать это), и будет докачивать только те серии которых у вас ещё нет. Старые серии при этом не удаляются, а продолжают раздаваться!
Eсли вы уже удалили старые серии, то предотвратить повторную закачку старых серий можно, отжав галочку в соответсвующих местах при запуске нового торрента. По возможности, желательно не удалять старые серии как можно дольше чтобы релизёр не столько продолжал раздавать старые серии, а смог сконцентрироваться на новых.


Трекер:  [ 12-Июл-2018 11:48 ]

  

Скачать .torrent

Размер .torrent файла 17 KB


Размер: 3.26 GB
Хэш (hash) релиза: d4083c2959b96071df14df446ee091c3068bbe05
Подписка на обновления:

Еще никто не оставлял запись к записи скачать торрент Аванпост The Outpost . Будь первым!

!Обратная связь