Tanzania | Ein Engel auf Erden (1) | Preacher HDTV

Скачать через торрент От этого песок становится красным It Stains the Sands Red Фильм бесплатно в хорошем качестве torrent

Скачивайте на UnionPeer.org фильмы через торрент без регистрации. Новинки кино в хорошем качестве через торрент. На UnionPeer.org можно скачать через торрент фильмы 2014 и 2015 годов. Самые новые фильмы.

Скачать торрент От этого песок становится красным It Stains the Sands Red бесплатно через .torrent фильм мультфильм сериал

Статистика раздачи
Размер:  6.72 GB   |    Зарегистрирован:  2 месяца 10 дней   |    .torrent скачан:  29 раз   |   
Раздают:  1  
   
загрузка...
 
Автор Сообщение

Galfimbul

avatar Galfimbul


От этого песок становится красным / It Stains the Sands Red

Год выхода: 2016
Жанр: Ужасы
, триллер, драма
Режиссер: Колин Миниха
В ролях: Бриттани Аллен, Хуан Ридингер, Мервин Мондесер, Кристофер Хиггинс, Эндрю Сапэнз, Майкл Филиппович, Нико Дэвид, Дилан Плэйфейр, Стив Джадкинс
О фильме: Начало зомби-апокалипсиса, люди бегут из Лас-Вегаса, в их числе стриптизерша Молли и ее парень Ник. В нескольких десятках миль от города есть маленький аэродром, где собираются друзья Ника, чтобы рвануть на самолете в Мексику. По пути машина застревает в песке, а вскоре парочку догоняет одинокий зомби, съедающий Ника. Теперь у Молли остался только один шанс выжить – пересечь на своих двоих пустыню. И желательно поторапливаться – тот самый зомби твердо вознамерился закончить начатое.

Страна: США
Студия: Digital Interference Productions, Grasswood Media
Продолжительность: 01:28:56
Перевод: Профессиональный многоголосый (СВ Студия)
Файл
Кодек: MPEG-2
Качество: DVD-9
Видео: MPEG2, PAL 16:9 ([email protected]) VBR, 25,000 кадров/сек, 7664 Кбит/сек
Звук: Русский DD 5.1 (384 Kbps), Английский / Немецкий DD 5.1 (448 Kbps)
Субтитры: Немецкие

Title:
Size: 6.72 Gb ( 7 043 680 KBytes ) - DVD-9
Enabled regions: 1, 2, 3, 4, 5, 6, 7, 8

VTS_01 :
Play Length: 00:00:16+00:00:07
Video: PAL 16:9 (720x576) VBR, Auto Pan&Scan
Audio:
Not specified (Dolby AC3, 6 ch)

VTS_02 :
Play Length: 00:01:50
Video: PAL 16:9 (720x576) VBR, Auto Pan&Scan
Audio:
Deutsch (Dolby AC3, 6 ch)

VTS_03 :
Play Length: 00:02:40
Video: PAL 16:9 (720x576) VBR, Auto Pan&Scan
Audio:
Deutsch (Dolby AC3, 6 ch)

VTS_04 :
Play Length: 00:02:01
Video: PAL 16:9 (720x576) VBR, Auto Pan&Scan
Audio:
Deutsch (Dolby AC3, 6 ch)

VTS_05 :
Play Length: 00:10:11
Video: PAL 16:9 (720x576) VBR, Auto Pan&Scan
Audio:
English (Dolby AC3, 2 ch)

VTS_06 :
Play Length: 00:03:26
Video: PAL 16:9 (720x576) VBR, Auto Pan&Scan
Audio:
English (Dolby AC3, 2 ch)

VTS_07 :
Play Length: 00:01:52
Video: PAL 16:9 (720x576) VBR, Auto Pan&Scan
Audio:
Deutsch (Dolby AC3, 2 ch)

VTS_08 :
Play Length: 01:28:56
Video: PAL 16:9 (720x576) VBR, Auto Pan&Scan
Audio:
Deutsch (Dolby AC3, 6 ch)
English (Dolby AC3, 6 ch)
Russian (Dolby AC3, 6 ch)
Subtitles:
Deutsch

Menu Video:
PAL 16:9 (720x576) VBR
Auto Pan&Scan
Menu Audio:
Not specified (Dolby AC3, 2 ch)
Menu Subtitles:
Not specified
Menu Deutsch Language Unit :
Root Menu
Audio Menu
Chapter (PTT) Menu
Общее
Полное имя : G:ААА2ОТ ЭТОГО ПЕСОК СТАНОВИТСЯ КРАСНЫМVIDEO_TSVTS_08_1.VOB
Формат : MPEG-PS
Размер файла : 1024 Мбайт
Продолжительность : 15 м.
Режим общего битрейта : Переменный
Общий поток : 9125 Кбит/сек

Видео
Идентификатор : 224 (0xE0)
Формат : MPEG Video
Версия формата : Version 2
Профиль формата : [email protected]
Параметр BVOP формата : Да
Параметр матрицы формата : Выборочная
Параметр GOP формата : Variable
Продолжительность : 15 м.
Вид битрейта : Переменный
Битрейт : 7664 Кбит/сек
Максимальный битрейт : 9800 Кбит/сек
Ширина : 720 пикселей
Высота : 576 пикселей
Соотношение сторон : 16:9
Частота кадров : 25,000 кадров/сек
Стандарт вещания : PAL
Цветовое пространство : YUV
Субдискретизация насыщенности : 4:2:0
Битовая глубина : 8 бит
Тип развёртки : Прогрессивная
Порядок развёртки : Верхнее поле первое
Метод сжатия : С потерями
Бит/(Пиксели*Кадры) : 0.739
TimeCode_FirstFrame : 01:00:01:09
TimeCode_Source : Group of pictures header
Размер потока : 860 Мбайт (84%)

Аудио #1
Идентификатор : 189 (0xBD)-128 (0x80)
Формат : AC-3
Формат/Информация : Audio Coding 3
Расширение режима : CM (complete main)
Параметр Endianness формата : Big
Режим смешивания : DVD-Video
Продолжительность : 15 м.
Вид битрейта : Постоянный
Битрейт : 448 Кбит/сек
Каналы : 6 каналов
Расположение каналов : Front: L C R, Side: L R, LFE
Частота : 48,0 КГц
Битовая глубина : 16 бит
Метод сжатия : С потерями
Размер потока : 50,3 Мбайт (5%)

Аудио #2
Идентификатор : 189 (0xBD)-129 (0x81)
Формат : AC-3
Формат/Информация : Audio Coding 3
Расширение режима : CM (complete main)
Параметр Endianness формата : Big
Режим смешивания : DVD-Video
Продолжительность : 15 м.
Вид битрейта : Постоянный
Битрейт : 448 Кбит/сек
Каналы : 6 каналов
Расположение каналов : Front: L C R, Side: L R, LFE
Частота : 48,0 КГц
Битовая глубина : 16 бит
Метод сжатия : С потерями
Размер потока : 50,3 Мбайт (5%)

Аудио #3
Идентификатор : 189 (0xBD)-130 (0x82)
Формат : AC-3
Формат/Информация : Audio Coding 3
Расширение режима : CM (complete main)
Параметр Endianness формата : Big
Режим смешивания : DVD-Video
Продолжительность : 15 м.
Вид битрейта : Постоянный
Битрейт : 384 Кбит/сек
Каналы : 6 каналов
Расположение каналов : Front: L C R, Side: L R, LFE
Частота : 48,0 КГц
Битовая глубина : 16 бит
Метод сжатия : С потерями
Размер потока : 43,1 Мбайт (4%)

Меню
Релиз:
Источник http://BlaTor.org

Трекер:  [ 12-Июл-2018 11:40 ]

  

Скачать .torrent

Размер .torrent файла 35 KB


Размер: 6.72 GB
Хэш (hash) релиза: 71c7d6037233a5bd77193eeed194eabbaacbb0e6
Подписка на обновления:

Торренты, похожие на От этого песок становится красным It Stains the Sands Red скачать торрент

Форум Название Автор Размер S L Добавлен
Зарубежные фильмы 2016-2018 (Новинки зарубежного кино) ·· От этого песок становится красным / It Stains the Sands Red (Колин Минихан / Colin Minihan) [2016, США, триллер, ужасы, HDRip] Galfimbul 15705006081.46 GB 0 0 1525814431

00:20

9-Май-18

Зарубежные фильмы 2016-2018 (Новинки зарубежного кино) ·· От этого песок становится красным / It Stains the Sands Red (Колин Минихан / Colin Minihan) [2016, США, триллер, ужасы, HDRip] MVO ("СВ Студия") Galfimbul 15705006081.46 GB 0 0 1525617036

17:30

6-Май-18

Зарубежные фильмы 2016-2018 (Новинки зарубежного кино) ·· От этого песок становится красным / It Stains the Sands Red (Колин Минихан) [2016, ужасы, триллер, драма, WEB-DLRip 720p] Galfimbul 29425873972.74 GB 0 0 1502269209

12:00

9-Авг-17

Зарубежные фильмы 2016-2018 (Новинки зарубежного кино) ·· От этого песок становится красным / It Stains the Sands Red (Колин Минихан / Colin Minihan) [2017, США, ужасы, триллер, драма, WEB-DLRip-AVC] VO Galfimbul 15592116921.45 GB 0 0 1501950629

19:30

5-Авг-17

Зарубежные фильмы 2016-2018 (Новинки зарубежного кино) ·· От этого песок становится красным / It Stains the Sands Red (2016) WEB-DL 1080p | L1 Galfimbul 35430844263.3 GB 0 0 1501499458

14:10

31-Июл-17

Зарубежные фильмы 2016-2018 (Новинки зарубежного кино) ·· От этого песок становится красным / It Stains the Sands Red (Колин Минихан / Colin Minihan) [2016, США, Ужасы, триллер, драма, WEB-DLRip] VO (BadBajo) Galfimbul 14722539521.37 GB 0 0 1501354882

22:01

29-Июл-17

Еще никто не оставлял запись к записи скачать торрент От этого песок становится красным It Stains the Sands Red . Будь первым!

!Обратная связь