言情小说 | Auferstanden | Tony Greenhand

Скачать через торрент План The Plan Фильм бесплатно в хорошем качестве torrent

Скачивайте на UnionPeer.org фильмы через торрент без регистрации. Новинки кино в хорошем качестве через торрент. На UnionPeer.org можно скачать через торрент фильмы 2014 и 2015 годов. Самые новые фильмы.

Скачать торрент План The Plan бесплатно через .torrent фильм мультфильм сериал

Статистика раздачи
Размер:  1007 MB   |    Зарегистрирован:  3 месяца 4 дня   |    .torrent скачан:  49 раз   |   
Раздают:  1  
   
загрузка...
 
Автор Сообщение

Galfimbul

avatar Galfimbul


План /The Plan

Год выхода: 2017
Жанр: Ужасы
Режиссер: Паоло Демэттейс
В ролях: Джулио Мария Каваллини, Риккардо Ливермор, Дженнифер Мищати, Марчелло Спинетта и другие
О фильме:
Пятеро друзей по колледжу встречаются для поездки в старый замок в Пьемонте. Местные легенды гласят, что королева, жившая в этом замке, Джованна I, навлекла на регион засуху и голод. Прежде чем ее успели казнить местные жители, она записала проклятие в своем дневнике и покончила с жизнью. Молодых людей заинтриговала эта легенда, и они решили войти в закрытую комнату, где погибла Джованна, Там они находят ее дневник, высвобождая тем самым ее дух, жаждущий мести.



Страна: Италия, P.I.T. Production
Продолжительность: 01:23:49
Перевод: Любительский (двухголосый закадровый) | HiWay Grope

Файл
Кодек: MPEG-4 AVC/x.264
Качество: WEBRip
Видео: 852x480, 25.000 fps, ~1455 kbps, 0.142 bit/pixel
Звук:
Аудио rus: AC3, 48 kHz, 2 ch, 192 Kbps
Субтитры: отсутствуют

Реклама: присутствует

Семпл
General
Unique ID : 289499820882402885166507207070503427911 (0xD9CBA32C33A9CFB7F7DAE28EFCE45F47)
Complete name : D:The.Plan.2017.WEBRip-AVC.HiWayGropeThe.Plan.2017.WEBRip-AVC.HiWayGrope.mkv
Format : Matroska
Format version : Version 4 / Version 2
File size : 1 007 MiB
Duration : 1h 23mn
Overall bit rate : 1 680 Kbps
Encoded date : UTC 2018-07-12 06:59:34
Writing application : mkvmerge v21.0.0 ('Tardigrades Will Inherit The Earth') 64-bit
Writing library : libebml v1.3.5 + libmatroska v1.4.8

Video
ID : 1
Format : AVC
Format/Info : Advanced Video Codec
Format profile : [email protected]
Format settings, CABAC : Yes
Format settings, ReFrames : 4 frames
Codec ID : V_MPEG4/ISO/AVC
Duration : 1h 23mn
Bit rate : 1 455 Kbps
Width : 852 pixels
Height : 480 pixels
Display aspect ratio : 16:9
Frame rate mode : Constant
Frame rate : 25.000 fps
Standard : PAL
Color space : YUV
Chroma subsampling : 4:2:0
Bit depth : 8 bits
Scan type : Progressive
Bits/(Pixel*Frame) : 0.142
Stream size : 872 MiB (87%)
Language : English
Default : Yes
Forced : No
Color range : Limited
Color primaries : BT.601 NTSC
Transfer characteristics : BT.601
Matrix coefficients : BT.601

Audio
ID : 2
Format : AC-3
Format/Info : Audio Coding 3
Mode extension : CM (complete main)
Format settings, Endianness : Big
Codec ID : A_AC3
Duration : 1h 23mn
Bit rate mode : Constant
Bit rate : 192 Kbps
Channel(s) : 2 channels
Channel positions : Front: L R
Sampling rate : 48.0 KHz
Frame rate : 31.250 fps (1536 spf)
Compression mode : Lossy
Stream size : 115 MiB (11%)
Language : Russian
Default : Yes
Forced : No
Релиз от: HiWay Grope
Источник http://BlaTor.org

Трекер:  [ 12-Июл-2018 11:40 ]

  

Скачать .torrent

Размер .torrent файла 20 KB


Размер: 1007 MB
Хэш (hash) релиза: ebe10e8112ec5a471e2a75e0c11f38039ea4deac
Подписка на обновления:

Торренты, похожие на План The Plan скачать торрент

Форум Название Автор Размер S L Добавлен
Азиатские фильмы ·· Человек с планом / The Plan Man (Си Хюп Сон / Si-Heup Seong) [2014, Южная Корея, комедия, HDTVRip] DVO (GREEN TEA) Galfimbul 22072867722.06 GB 0 0 1419248596

14:43

22-Дек-14

Зарубежные сериалы ·· Звездный крейсер Галактика: План / Battlestar Galactica: The Plan (Эдвард Джеймс Олмос) [2009, США, Фантастика, DVDRip](LostFilm) Galfimbul 15098941441.41 GB 0 0 1497069766

07:42

10-Июн-17

Зарубежные сериалы ·· Звездный крейсер Галактика: План / Battlestar Galactica: The Plan (Эдвард Джеймс Олмос Edward James Olmos) [2009, США, Фантастика, HDRip] MVO (LostFilm) + Original Galfimbul 22708428802.11 GB 0 0 1497069702

07:41

10-Июн-17

Зарубежные сериалы ·· Звездный крейсер Галактика: План / Battlestar Galactica: The Plan (Эдвард Джеймс Олмос / Edward James Olmos) [2009, США, Фантастика, HDRip] / MVO LostFilm (студия Kravec) Galfimbul 15558758401.45 GB 0 0 1497069694

07:41

10-Июн-17

Зарубежные сериалы ·· Звездный крейсер Галактика - План / Battlestar Galactica - The Plan (Эдвард Джеймс Олмос / Edward James Olmos) [2009, США, фантастика, Blu-ray>DVD9 (Custom)] MVO + Original + Rus,En sub Galfimbul 80465612807.49 GB 0 0 1497069602

07:40

10-Июн-17

Зарубежные сериалы ·· Звездный крейсер Галактика: План / Battlestar Galactica: The Plan (Эдвард Джеймс Олмос / Edward James Olmos) [2009, США, Фантастика, BDrip, 720p] MVO(LostFilm) + Original Galfimbul 41310059373.85 GB 0 0 1496964270

02:24

9-Июн-17

Зарубежные сериалы ·· Звездный крейсер Галактика: План / Battlestar Galactica: The Plan (Эдвард Джеймс Олмос / Edward James Olmos) [2009, США, Фантастика, BDrip, 1080p] MVO(LostFilm) + Original Galfimbul 86240465258.03 GB 0 0 1496964201

02:23

9-Июн-17

Зарубежные сериалы ·· Звездный крейсер Галактика: План / Battlestar Galactica: The Plan (Эдвард Джеймс Олмос / Edward James Olmos) [2009, США, Фантастика, Blu-Ray Disc, 1080p] MVO(LostFilm) + Original Galfimbul 4146828355538.62 GB 0 0 1496964132

02:22

9-Июн-17

Зарубежные сериалы ·· Звездный крейсер Галактика - План / Battlestar Galactica - The Plan [2009, США, Фантастика, BDRemux 1080p] (LostFilm DTS-HD 5.1) Galfimbul 3414343792031.8 GB 0 0 1496964118

02:21

9-Июн-17

Зарубежные сериалы ·· Звездный крейсер Галактика - План / Battlestar Galactica - The Plan [2009, США, Фантастика] [BD Rip 720p] Galfimbul 97625085259.09 GB 0 0 1496964108

02:21

9-Июн-17

Зарубежные сериалы ·· Звездный крейсер Галактика: План / Battlestar Galactica: The Plan (Майкл Раймер, Род Харди) [2009, США, фантастика, боевик, драма, приключения, BDRip] Galfimbul 53007856614.94 GB 0 0 1496964001

02:20

9-Июн-17

Зарубежные фильмы до 2016 ·· 10-летний план / The 10 Year Plan (Дж.С. Калчиано) [2014, мелодрама, комедия, WEB-DLRip] Galfimbul 15602288001.45 GB 0 0 1446146024

22:13

29-Окт-15

Зарубежные сериалы ·· Звездный крейсер Галактика / Battlestar Galactica (минисерии + Сезон 1 + Лезвие + План) (s01e00-13, Razor, The Plan) (Майкл Раймер, Рональд Д. Мур) [2003 г., Фантастика, BDRip 1080p] Galfimbul 8853269427482.45 GB 0 0 1309262670

15:04

28-Июн-11

Зарубежные фильмы до 2016 ·· План игры / План на игру / The Game Plan (Энди Фикмен / Andy Fickman) [2007 г., США, Комедия, семейный, спорт, BDRemux 1080p] Dub + Original Eng + Sub (eng, ukr, fre, de, ita) sebladec 2063858174819.22 GB 0 0 1295191555

18:25

16-Янв-11

Зарубежные фильмы до 2016 ·· План игры / План на игру / The Game Plan (Энди Фикмен / Andy Fickman) [2007 г., комедия, семейный, спорт, BDRip 1080p] Dub + MVO sebladec 1147552676010.69 GB 0 0 1295191393

18:23

16-Янв-11

Зарубежные фильмы до 2016 ·· План игры / План на игру / The Game Plan (Энди Фикмен / Andy Fickman) [2007 г., Комедия, семейный, спорт, DVDRip] sebladec 737628160703 MB 0 0 1295191220

18:20

16-Янв-11

Зарубежные фильмы до 2016 ·· План игры / План на игру / The Game Plan (Энди Фикмен / Andy Fickman) [2007 г., Комедия, семейный, спорт, DVDRip] sebladec 15640596481.46 GB 0 0 1295191111

18:18

16-Янв-11

Зарубежные фильмы до 2016 ·· План игры / План на игру / The Game Plan (Энди Фикмен / Andy Fickman) [2007, США, Комедия, семейный, спорт, BDRip] DUB + original eng + Subs sebladec 23438651482.18 GB 0 0 1295191073

18:17

16-Янв-11

Зарубежные фильмы 2016-2018 (Новинки зарубежного кино) ·· План свадьбы / Преодоление / Through the Wall / The Wedding Plan / Laavor et hakir (Рама Бурштейн / Rama Burshtein) [2016, Израиль, комедия, HDTVRip-AVC] DVO (Транстайтлс ЛТД) + Original Heb Galfimbul 24643549562.3 GB 0 0 1516003285

11:01

15-Янв-18

Еще никто не оставлял запись к записи скачать торрент План The Plan . Будь первым!

!Обратная связь