The General Theory Of Employment [ By: John Maynard Keynes ] | ROH Bound By Honor 2018 | Marvel's Luke Cage

Скачать через торрент Остров собак Isle of Dogs Фильм бесплатно в хорошем качестве torrent

Скачивайте на UnionPeer.org фильмы через торрент без регистрации. Новинки кино в хорошем качестве через торрент. На UnionPeer.org можно скачать через торрент фильмы 2014 и 2015 годов. Самые новые фильмы.

Скачать торрент Остров собак Isle of Dogs бесплатно через .torrent фильм мультфильм сериал

Статистика раздачи
Размер:  3.61 GB   |    Зарегистрирован:  6 дней   |    .torrent скачан:  40 раз   |   
Раздают:  2  
   
загрузка...
 
Автор Сообщение

Galfimbul

avatar Galfimbul


Остров собак
Isle of Dogs
Год выпуска: 2018
Страна: США, Германия
Студия: Fox Searchlight
Жанр: мультфильм, фэнтези, драма, комедия, приключения
Продолжительность: 01:41:10
Перевод: Профессиональный (дублированный) Пифагор
Субтитры: русские (форс., Focs), английские (SDH)
Оригинальная аудиодорожка: английский, японский
Режиссёр: Уэс Андерсон / Wes Anderson
Роли озвучивали: Брайан Крэнстон, Кою Ранкин, Эдвард Нортон, Боб Бэлабан, Билл Мюррей, Джефф Голдблюм, Кунъити Номура, Акира Такаяма, Грета Гервиг, Фрэнсис МакДорманд, Акира Ито, Скарлетт Йоханссон, Харви Кейтель, Ф. Мюррей Абрахам, Йоко Оно, Тильда Суинтон, Кен Ватанабе, Мари Нацуки, Фишер Стивенс, Лив Шрайбер и др.
Описание: История 12-летнего мальчика Атари Кобаяши, опекаемого коррумпированным мэром Кобаяши. Когда по Указу последнего все домашние собаки города Мегасаки изгоняются на громадную свалку, Атари в одиночку отправляется на миниатюрном летательном аппарате на мусорный остров, чтобы найти своего верного пса по прозвищу Спотс. Там на острове вместе со стаей новых друзей-дворняг он начнет эпичное путешествие, которое решит будущую судьбу всей Префектуры.
КиноПоиск | IMDb | Sample
Тип релиза: BDRip 720p (Источник: Isle.of.Dogs.2018.1080p.BluRay.REMUX.AVC.DTS-HD.MA.5.1-FGT)
Контейнер: MKV
Видео: x264, 1280x534 (2.40:1), 23.976 fps, ~3685 kbps avg, 0.222 bit/pixel
Аудио #1: Russian 48.0 KHz, АC3, 3/2 (L,C,R,l,r) + LFE ch, ~384.00 kbps avg |Пифагор|
Аудио #2: Multi 48.0 KHz, АC3, 3/2 (L,C,R,l,r) + LFE ch, ~640.00 kbps avg |Original|
Аудио #3: English 48.0 KHz, АC3, 3/2 (L,C,R,l,r) + LFE ch, ~448.00 kbps avg |Descriptive|
Формат субтитров: softsub (SRT)
Рип, работа со звуком и субтитрами - whip93.

Форсированные субтитры перебиты с хардсаба из WEB-DL.
Source vs. Encode

<div class="sp-wrap">
<div class="sp-head folded">x264 log</div>
<div class="sp-body">raw [info]: 1280x536p 1:1 @ 24000/1001 fps (cfr)
raw [info]: color matrix: bt709
x264 [info]: using SAR=1/1
x264 [info]: using cpu capabilities: MMX2 SSE2Fast SSSE3 SSE4.2 AVX
x264 [info]: profile High, level 4.1
x264 [info]: frame I:44 Avg QP:13.24 size:163351
x264 [info]: frame P:585 Avg QP:15.52 size: 46605
x264 [info]: frame B:1901 Avg QP:16.41 size: 10618
x264 [info]: consecutive B-frames: 4.0% 3.1% 7.7% 38.4% 11.9% 15.9% 6.1% 3.8% 1.8% 1.2% 0.4% 2.4% 1.0% 0.0% 2.4%
x264 [info]: mb I I16..4: 15.4% 48.4% 36.2%
x264 [info]: mb P I16..4: 2.0% 9.4% 2.9% P16..4: 33.9% 16.4% 11.2% 5.6% 1.3% skip:17.3%
x264 [info]: mb B I16..4: 0.7% 0.9% 0.2% B16..8: 24.9% 13.4% 3.3% direct: 5.4% skip:51.1% L0:39.9% L1:45.9% BI:14.2%
x264 [info]: 8x8 transform intra:57.0% inter:40.4%
x264 [info]: coded y,uvDC,uvAC intra: 77.3% 85.4% 80.4% inter: 19.9% 20.7% 10.3%
x264 [info]: i16 v,h,dc,p: 66% 8% 15% 11%
x264 [info]: i8 v,h,dc,ddl,ddr,vr,hd,vl,hu: 14% 14% 17% 7% 9% 9% 9% 9% 12%
x264 [info]: i4 v,h,dc,ddl,ddr,vr,hd,vl,hu: 15% 14% 10% 8% 12% 10% 10% 9% 11%
x264 [info]: i8c dc,h,v,p: 48% 27% 15% 11%
x264 [info]: Weighted P-Frames: Y:3.9% UV:2.1%
x264 [info]: ref P L0: 53.7% 3.5% 19.5% 5.3% 5.6% 3.1% 3.3% 1.4% 1.6% 1.0% 1.1% 0.8% 0.1%
x264 [info]: ref B L0: 66.6% 14.3% 6.6% 3.6% 2.6% 2.2% 1.5% 1.0% 0.8% 0.6% 0.2%
x264 [info]: ref B L1: 93.4% 6.6%
x264 [info]: kb/s:3635.11
General
Unique ID : 269861143789519749450078251770514160678 (0xCB055DA2C7CBA05D571B810EDF72BC26)
Complete name : D:\Фильмы\Isle.of.Dogs.2018.720p.BluRay.DD5.1.x264.-whip93.mkv
Format : Matroska
Format version : Version 4 / Version 2
File size : 3.61 GiB
Duration : 1 h 41 min
Overall bit rate : 5 102 kb/s
Movie name : Остров собак | Isle of Dogs (2018) - Release by whip93
Encoded date : UTC 2018-07-11 11:56:22
Writing application : mkvmerge v22.0.0 ('At The End Of The World') 64-bit
Writing library : libebml v1.3.5 + libmatroska v1.4.8

Video
ID : 1
Format : AVC
Format/Info : Advanced Video Codec
Format profile : [email protected]
Format settings : CABAC / 12 Ref Frames
Format settings, CABAC : Yes
Format settings, ReFrames : 12 frames
Codec ID : V_MPEG4/ISO/AVC
Duration : 1 h 41 min
Bit rate : 3 635 kb/s
Width : 1 280 pixels
Height : 534 pixels
Display aspect ratio : 2.40:1
Frame rate mode : Constant
Frame rate : 23.976 (24000/1001) FPS
Color space : YUV
Chroma subsampling : 4:2:0
Bit depth : 8 bits
Scan type : Progressive
Bits/(Pixel*Frame) : 0.222
Stream size : 2.57 GiB (71%)
Title : Encoded by whip93
Writing library : x264 core 155 r2867+82 a249126 t_mod_Custom_2 [[email protected] X86_64]
Encoding settings : cabac=1 / ref=12 / deblock=1:-3:-3 / analyse=0x3:0x133 / me=umh / subme=11 / psy=1 / fade_compensate=0.00 / psy_rd=1.00:0.08 / mixed_ref=0 / me_range=48 / chroma_me=1 / trellis=2 / 8x8dct=1 / cqm=0 / deadzone=21,11 / fast_pskip=1 / chroma_qp_offset=-3 / threads=12 / lookahead_threads=3 / sliced_threads=0 / nr=0 / decimate=1 / interlaced=0 / bluray_compat=0 / constrained_intra=0 / fgo=0 / bframes=14 / b_pyramid=2 / b_adapt=2 / b_bias=0 / direct=1 / weightb=1 / open_gop=0 / weightp=2 / keyint=250 / keyint_min=23 / scenecut=40 / intra_refresh=0 / rc_lookahead=90 / rc=crf / mbtree=0 / crf=16.0000 / qcomp=0.72 / qpmin=0:0:0 / qpmax=69:69:69 / qpstep=4 / vbv_maxrate=62500 / vbv_bufsize=78125 / crf_max=0.0 / nal_hrd=none / filler=0 / ip_ratio=1.40 / pb_ratio=1.30 / aq=3:0.80 / aq-sensitivity=10.00 / aq-factor=1.00:1.00:1.00 / aq2=0 / aq3=0
Language : English
Default : Yes
Forced : No
Color range : Limited
Color primaries : BT.709
Transfer characteristics : BT.709
Matrix coefficients : BT.709

Audio #1
ID : 2
Format : AC-3
Format/Info : Audio Coding 3
Codec ID : A_AC3
Duration : 1 h 41 min
Bit rate mode : Constant
Bit rate : 384 kb/s
Channel(s) : 6 channels
Channel positions : Front: L C R, Side: L R, LFE
Sampling rate : 48.0 kHz
Frame rate : 31.250 FPS (1536 SPF)
Bit depth : 16 bits
Compression mode : Lossy
Stream size : 278 MiB (8%)
Title : Dub (Пифагор)
Language : Russian
Service kind : Complete Main
Default : Yes
Forced : No

Audio #2
ID : 3
Format : AC-3
Format/Info : Audio Coding 3
Codec ID : A_AC3
Duration : 1 h 41 min
Bit rate mode : Constant
Bit rate : 640 kb/s
Channel(s) : 6 channels
Channel positions : Front: L C R, Side: L R, LFE
Sampling rate : 48.0 kHz
Frame rate : 31.250 FPS (1536 SPF)
Bit depth : 16 bits
Compression mode : Lossy
Stream size : 463 MiB (13%)
Title : Original
Language : Multiple languages
Service kind : Complete Main
Default : No
Forced : No

Audio #3
ID : 4
Format : AC-3
Format/Info : Audio Coding 3
Codec ID : A_AC3
Duration : 1 h 41 min
Bit rate mode : Constant
Bit rate : 448 kb/s
Channel(s) : 6 channels
Channel positions : Front: L C R, Side: L R, LFE
Sampling rate : 48.0 kHz
Frame rate : 31.250 FPS (1536 SPF)
Bit depth : 16 bits
Compression mode : Lossy
Stream size : 324 MiB (9%)
Title : Descriptive
Language : English
Service kind : Complete Main
Default : No
Forced : No

Text #1
ID : 5
Format : UTF-8
Codec ID : S_TEXT/UTF8
Codec ID/Info : UTF-8 Plain Text
Duration : 1 h 34 min
Bit rate : 10 b/s
Count of elements : 127
Stream size : 6.96 KiB (0%)
Title : Forced
Language : Russian
Default : Yes
Forced : No

Text #2
ID : 6
Format : UTF-8
Codec ID : S_TEXT/UTF8
Codec ID/Info : UTF-8 Plain Text
Duration : 1 h 33 min
Bit rate : 94 b/s
Count of elements : 1213
Stream size : 64.9 KiB (0%)
Title : Focs
Language : Russian
Default : No
Forced : No

Text #3
ID : 7
Format : UTF-8
Codec ID : S_TEXT/UTF8
Codec ID/Info : UTF-8 Plain Text
Duration : 1 h 35 min
Bit rate : 62 b/s
Count of elements : 1223
Stream size : 43.7 KiB (0%)
Title : Original (SDH)
Language : English
Default : No
Forced : No

Menu
00:00:00.000 : en:Chapter 01
00:03:36.049 : en:Chapter 02
00:07:53.181 : en:Chapter 03
00:13:41.195 : en:Chapter 04
00:16:39.373 : en:Chapter 05
00:20:45.035 : en:Chapter 06
00:26:04.312 : en:Chapter 07
00:29:27.265 : en:Chapter 08
00:35:58.573 : en:Chapter 09
00:40:36.475 : en:Chapter 10
00:44:46.433 : en:Chapter 11
00:48:15.100 : en:Chapter 12
00:52:07.499 : en:Chapter 13
00:56:06.780 : en:Chapter 14
00:59:07.085 : en:Chapter 15
01:03:17.710 : en:Chapter 16
01:08:45.079 : en:Chapter 17
01:14:03.230 : en:Chapter 18
01:16:34.965 : en:Chapter 19
01:20:46.925 : en:Chapter 20
01:23:36.219 : en:Chapter 21
01:30:09.737 : en:Chapter 22
01:33:02.493 : en:Chapter 23
01:35:41.235 : en:Chapter 24</div>
</div>


Трекер:  [ 11-Июл-2018 21:30 ]

  

Скачать .torrent

Размер .torrent файла 36 KB


Размер: 3.61 GB
Хэш (hash) релиза: c28c4b3ec5894c6274185762f46c1be540e78958
Подписка на обновления:

Торренты, похожие на Остров собак Isle of Dogs скачать торрент

Форум Название Автор Размер S L Добавлен
Мультфильмы 2016-2018 (Новинки мультфильмов) ·%· Остров собак / Isle of Dogs (2018) BDRip 1080p от qqss44 & MegaPeer | iTunes Galfimbul 45050012674.2 GB 1 6 1531653625

14:20

15-Июл-18

Мультфильмы 2016-2018 (Новинки мультфильмов) ·%· Остров собак / Isle of Dogs (2018) BDRip от MegaPeer | iTunes Galfimbul 15197074871.42 GB 2 5 1531237212

18:40

10-Июл-18

Мультфильмы до 2016 ·%· Остров собак / Isle of Dogs (Уэс Андерсон / Wes Anderson) [2018, США, Германия, Мультфильм, фантастика, фэнтези, драма, комедия, BDRemux 1080p] Dub (iTunes) + Sub (Rus, Eng) + Original Eng Galfimbul 2320922090121.62 GB 0 0 1531233049

17:30

10-Июл-18

Мультфильмы 2016-2018 (Новинки мультфильмов) ·%· Остров собак / Isle of Dogs (2018) BDRip-AVC от HELLYWOOD | iTunes Galfimbul 22933045392.14 GB 0 0 1531228828

16:20

10-Июл-18

Мультфильмы 2016-2018 (Новинки мультфильмов) ·%· Остров собак / Isle of Dogs (2018) BDRemux 1080p от ExKinoRay | iTunes Galfimbul 2320932971621.62 GB 0 0 1531201273

08:41

10-Июл-18

Мультфильмы 2016-2018 (Новинки мультфильмов) ·%· Остров собак / Isle of Dogs (2018) HDRip от Scarabey | iTunes Galfimbul 15033589761.4 GB 2 0 1530980507

19:21

7-Июл-18

Мультфильмы 2016-2018 (Новинки мультфильмов) ·%· Остров собак / Isle of Dogs (2018) HDRip от MegaPeer | iTunes Galfimbul 784667138748 MB 0 0 1530890418

18:20

6-Июл-18

Мультфильмы 2016-2018 (Новинки мультфильмов) ·%· Остров собак / Isle of Dogs (2018) BDRip 1080p от ExKinoRay | iTunes Galfimbul 78004049217.26 GB 0 0 1530861021

10:10

6-Июл-18

Мультфильмы 2016-2018 (Новинки мультфильмов) ·%· Остров собак / Isle of Dogs (2018) BDRip 720p от ExKinoRay | iTunes Galfimbul 43530464394.05 GB 0 0 1530855018

08:30

6-Июл-18

Мультфильмы 2016-2018 (Новинки мультфильмов) ·%· Остров собак / Isle of Dogs (2018) HDRip-AVC | iTunes Galfimbul 15064392111.4 GB 2 0 1530851098

07:24

6-Июл-18

Мультфильмы 2016-2018 (Новинки мультфильмов) ·%· Остров собак / Isle of Dogs (2018) BDRip 1080p | iTunes Galfimbul 76896026367.16 GB 2 0 1530763225

07:00

5-Июл-18

Мультфильмы 2016-2018 (Новинки мультфильмов) ·%· Остров собак / Isle of Dogs (2018) HDRip | iTunes Galfimbul 14674882561.37 GB 3 0 1530763214

07:00

5-Июл-18

Мультфильмы 2016-2018 (Новинки мультфильмов) ·%· Остров собак / Isle of Dogs (2018) WEBRip 1080p | iTunes Galfimbul 46540401214.33 GB 2 0 1530707490

15:31

4-Июл-18

Мультфильмы до 2016 ·%· Остров собак / Isle of Dogs (Уэс Андерсон / Wes Anderson) [2018, США, Германия, мультфильм, фантастика, фэнтези, драма, комедия, WEB-DLRip] Dub (iTunes) + Sub Rus (hurdsub) Galfimbul 15647395841.46 GB 2 0 1530639031

20:30

3-Июл-18

Мультфильмы до 2016 ·%· Остров собак / Isle of Dogs (Уэс Андерсон / Wes Anderson) [2018, США, Германия, мультфильм, фантастика, фэнтези, драма, комедия, WEB-DLRip-AVC] Dub + Sub Rus Galfimbul 14776761241.38 GB 0 0 1530633724

19:02

3-Июл-18

Мультфильмы 2016-2018 (Новинки мультфильмов) ·%· Остров собак / Isle of Dogs (2018) WEB-DLRip-AVC от OlLanDGroup | iTunes Galfimbul 14422871471.34 GB 0 0 1530631222

18:20

3-Июл-18

Мультфильмы 2016-2018 (Новинки мультфильмов) ·%· Остров собак / Isle of Dogs (2018) WEB-DLRip от Generalfilm | КПК | iTunes Galfimbul 404007968385 MB 0 0 1530630253

18:04

3-Июл-18

Мультфильмы 2016-2018 (Новинки мультфильмов) ·%· Остров собак / Isle of Dogs (2018) WEB-DLRip от MegaPeer | iTunes Galfimbul 15678566401.46 GB 2 0 1530618028

14:40

3-Июл-18

Мультфильмы 2016-2018 (Новинки мультфильмов) ·%· Остров собак / Isle of Dogs (2018) WEB-DL 1080р | iTunes Galfimbul 42360534703.95 GB 3 0 1530616812

14:20

3-Июл-18

Еще никто не оставлял запись к записи скачать торрент Остров собак Isle of Dogs . Будь первым!

!Обратная связь