Trance Maniacs Party - Progressive Session 35 | HDCAM The Meg | Download

Скачать порно через торрент [PlayboyPlus.com] 2016-04-25-2018-07-01 Lilil - Collection UnionPeer.org бесплатно онлайн HD качество

Скачать новое порно 2015, 2014 новинки через торрент UnionPeer.org

Порно торрент бесплатно ЮнионПир.орг

Статистика раздачи
Размер:  4.97 GB   |    Зарегистрирован:  2 месяца 10 дней   |    .torrent скачан:  286 раз   |   
Раздают:  1  
   
загрузка...
 
Автор Сообщение

Galfimbul

avatar Galfimbul


Lilil - Collection
Имя модели: Lilil (Lily Chey, NastyQ, Lily C, Raisa, Anastasia S, Guerlain)
thenude.eu
indexxx.com
Сайт: PlayboyPlus.com
Время: 2016-04-25-2018-07-01
Жанр: Erotic, Posing, Solo
Продолжительность: 11 роликов: 00:14:55, 00:14:33, 00:10:53, 00:08:55, 00:07:49, 00:10:24, 00:11:17, 00:08:13, 00:07:37, 00:08:06, 00:10:47.
Описание: Подборка видеороликов (11 роликов 1080p), с сайта PlayboyPlus, с моделью Lili (Lily Chey, NastyQ, Lily C, Raisa, Anastasia S, Guerlain)
Доп. информация: Ролики: 2017-10-02 - Lilii & Mandy Kay & Melissa Lolita & Natasha Ty & Sabrina Nichole - Mashup Sexy In Socks Vol. 3, 2018-07-01 Elyse Jean & Julie Ambrose & Lilii & Marlee May - Mashup; Great Outdoors Vol. 5, по сути являются нарезкой из ранее выпущенных, с участием Lili и прочих. И представлены чисто для полноты коллекции.
Качество видео: HDRip 1080p
Формат видео: MP4
2016-04-25 Lilii - Naked & Chill:
Видео: AVC1, 6 000 kb/s, 1 920:1 080
Аудио: AAC2, 192 kb/s, 2 channels, 48.0 kHz
2016-05-02 Lilii - Just For You:
Видео: AVC1, 6 000 kb/s,
Аудио: AAC2, 192 kb/s, 2 channels, 48.0 kHz
2016-05-12 Lilii - Dinner Date:
Видео: AVC1, 6 000 kb/s, 1 920:1 080
Аудио: AAC2, 192 kb/s, 2 channels, 48.0 kHz
2017-02-17 Lilii - Soft And Fresh:
Видео: AVC1, 6 000 kb/s, 1 920:1 080
Аудио: AAC2, 199 kb/s, 2 channels, 48.0 kHz
2017-05-18 Lilii - Ocean Breeze:
Видео: AVC1, 6 000 kb/s, 1 920:1 080
Аудио: AAC2, 192 kb/s, 2 channels, 48.0 kHz
2017-05-25 Lilii - Secret Rendezvous:
Видео: AVC1, 6 000 kb/s, 1 920:1 080
Аудио: AAC2, 199 kb/s, 2 channels, 48.0 kHz
2017-10-02 L 6 000 kb/silii - Mandy Kay, Melissa Lolita, Natasha Ty, Sabrina Nichole - Mashup Sexy In Socks Vol. 3:
Видео: AVC1, 5 990 kb/s, 1 920:1 080
Аудио: AAC2, 192 kb/s, 2 channels, 48.0 kHz
2017-11-02 Lilii - Summer Daze:
Видео: AVC1, 5 985 kb/s 1 920:1 080
Аудио: AAC2, 192 kb/s, 2 channels, 48.0 kHz
2017-11-17 Lilii - Sun Goddess:
Видео: AVC1, 5 958 kb/s 1 920:1 080
Аудио: AAC2, 192 kb/s, 2 channels, 48.0 kHz
2017-11-29 Lilii - River Odyssey:
Видео: AVC1, 5 982 kb/s, 1 920:1 080
Аудио: AAC2, 192 kb/s, 2 channels, 48.0 kHz
2018-07-01 Elyse Jean & Julie Ambrose & Lilii & Marlee May - Mashup; Great Outdoors Vol. 5.:
Видео: AVC1, 5 993 kb/s, 1 920:1 080
Аудио: AAC2, 192 kb/s, 2 channels, 48.0 kHz
General
Complete name : K:\Анастасия Пантелеева\[PlayboyPlus]\Video\2016-04-25 Lilii - Naked & Chill.mp4
Format : MPEG-4
Format profile : Base Media
Codec ID : isom (isom/iso2/avc1/mp41)
File size : 688 MiB
Duration : 14 min 55 s
Overall bit rate : 6 448 kb/s
Writing application : Lavf56.33.101

Video
ID : 1
Format : AVC
Format/Info : Advanced Video Codec
Format profile : [email protected]
Format settings : CABAC / 5 Ref Frames
Format settings, CABAC : Yes
Format settings, ReFrames : 5 frames
Codec ID : avc1
Codec ID/Info : Advanced Video Coding
Duration : 14 min 55 s
Bit rate : 6 000 kb/s
Width : 1 920 pixels
Height : 1 080 pixels
Display aspect ratio : 16:9
Frame rate mode : Constant
Frame rate : 29.970 (30000/1001) FPS
Color space : YUV
Chroma subsampling : 4:2:0
Bit depth : 8 bits
Scan type : Progressive
Bits/(Pixel*Frame) : 0.097
Stream size : 639 MiB (93%)
Writing library : x264 core 146 r2538 121396c
Encoding settings : cabac=1 / ref=5 / deblock=1:0:0 / analyse=0x3:0x113 / me=umh / subme=8 / psy=1 / psy_rd=1.00:0.00 / mixed_ref=1 / me_range=16 / chroma_me=1 / trellis=1 / 8x8dct=1 / cqm=0 / deadzone=21,11 / fast_pskip=1 / chroma_qp_offset=-2 / threads=48 / lookahead_threads=8 / sliced_threads=0 / nr=0 / decimate=1 / interlaced=0 / bluray_compat=0 / constrained_intra=0 / bframes=3 / b_pyramid=2 / b_adapt=2 / b_bias=0 / direct=3 / weightb=1 / open_gop=0 / weightp=2 / keyint=60 / keyint_min=6 / scenecut=40 / intra_refresh=0 / rc_lookahead=50 / rc=abr / mbtree=1 / bitrate=6000 / ratetol=1.0 / qcomp=0.60 / qpmin=0 / qpmax=69 / qpstep=4 / ip_ratio=1.40 / aq=1:1.00
Tagged date : UTC 2016-04-22 15:48:18

Audio
ID : 2
Format : AAC
Format/Info : Advanced Audio Codec
Format profile : LC
Codec ID : mp4a-40-2
Duration : 14 min 55 s
Duration_LastFrame : -12 ms
Bit rate mode : Constant
Bit rate : 192 kb/s
Channel(s) : 2 channels
Channel positions : Front: L R
Sampling rate : 48.0 kHz
Frame rate : 46.875 FPS (1024 SPF)
Compression mode : Lossy
Stream size : 20.5 MiB (3%)
Default : Yes
Alternate group : 1
Tagged date : UTC 2016-04-22 15:48:18

Other #1
ID : 65536
Type : Hint
Format : RTP
Codec ID : rtp
Duration : 14 min 55 s
Encoded date : UTC 2016-04-22 15:48:15
Tagged date : UTC 2016-04-22 15:48:18

Other #2
ID : 65537
Type : Hint
Format : RTP
Codec ID : rtp
Duration : 14 min 55 s
Encoded date : UTC 2016-04-22 15:48:18
Tagged date : UTC 2016-04-22 15:48:18
Bit rate mode : VBR
General
Complete name : K:\Анастасия Пантелеева\[PlayboyPlus]\Video\2016-05-02 Lilii - Just For You.mp4
Format : MPEG-4
Format profile : Base Media
Codec ID : isom (isom/iso2/avc1/mp41)
File size : 677 MiB
Duration : 14 min 33 s
Overall bit rate : 6 501 kb/s
Writing application : Lavf56.33.101

Video
ID : 1
Format : AVC
Format/Info : Advanced Video Codec
Format profile : [email protected]
Format settings : CABAC / 5 Ref Frames
Format settings, CABAC : Yes
Format settings, ReFrames : 5 frames
Codec ID : avc1
Codec ID/Info : Advanced Video Coding
Duration : 14 min 32 s
Bit rate : 6 000 kb/s
Width : 1 920 pixels
Height : 1 080 pixels
Display aspect ratio : 16:9
Frame rate mode : Constant
Frame rate : 29.970 (30000/1001) FPS
Color space : YUV
Chroma subsampling : 4:2:0
Bit depth : 8 bits
Scan type : Progressive
Bits/(Pixel*Frame) : 0.097
Stream size : 629 MiB (93%)
Writing library : x264 core 146 r2538 121396c
Encoding settings : cabac=1 / ref=5 / deblock=1:0:0 / analyse=0x3:0x113 / me=umh / subme=8 / psy=1 / psy_rd=1.00:0.00 / mixed_ref=1 / me_range=16 / chroma_me=1 / trellis=1 / 8x8dct=1 / cqm=0 / deadzone=21,11 / fast_pskip=1 / chroma_qp_offset=-2 / threads=48 / lookahead_threads=8 / sliced_threads=0 / nr=0 / decimate=1 / interlaced=0 / bluray_compat=0 / constrained_intra=0 / bframes=3 / b_pyramid=2 / b_adapt=2 / b_bias=0 / direct=3 / weightb=1 / open_gop=0 / weightp=2 / keyint=60 / keyint_min=6 / scenecut=40 / intra_refresh=0 / rc_lookahead=50 / rc=abr / mbtree=1 / bitrate=6000 / ratetol=1.0 / qcomp=0.60 / qpmin=0 / qpmax=69 / qpstep=4 / ip_ratio=1.40 / aq=1:1.00
Tagged date : UTC 2016-04-27 23:08:45

Audio
ID : 2
Format : AAC
Format/Info : Advanced Audio Codec
Format profile : LC
Codec ID : mp4a-40-2
Duration : 14 min 33 s
Duration_LastFrame : -12 ms
Bit rate mode : Constant
Bit rate : 192 kb/s
Channel(s) : 2 channels
Channel positions : Front: L R
Sampling rate : 48.0 kHz
Frame rate : 46.875 FPS (1024 SPF)
Compression mode : Lossy
Stream size : 20.0 MiB (3%)
Default : Yes
Alternate group : 1
Tagged date : UTC 2016-04-27 23:08:45

Other #1
ID : 65536
Type : Hint
Format : RTP
Codec ID : rtp
Duration : 14 min 32 s
Encoded date : UTC 2016-04-27 23:08:43
Tagged date : UTC 2016-04-27 23:08:45

Other #2
ID : 65537
Type : Hint
Format : RTP
Codec ID : rtp
Duration : 14 min 33 s
Encoded date : UTC 2016-04-27 23:08:45
Tagged date : UTC 2016-04-27 23:08:45
Bit rate mode : VBR
General
Complete name : K:\Анастасия Пантелеева\[PlayboyPlus]\Video\2016-05-12 Lilii - Dinner Date.mp4
Format : MPEG-4
Format profile : Base Media
Codec ID : isom (isom/iso2/avc1/mp41)
File size : 497 MiB
Duration : 10 min 53 s
Overall bit rate : 6 385 kb/s
Writing application : Lavf56.33.101

Video
ID : 1
Format : AVC
Format/Info : Advanced Video Codec
Format profile : [email protected]
Format settings : CABAC / 5 Ref Frames
Format settings, CABAC : Yes
Format settings, ReFrames : 5 frames
Codec ID : avc1
Codec ID/Info : Advanced Video Coding
Duration : 10 min 53 s
Bit rate : 6 000 kb/s
Width : 1 920 pixels
Height : 1 080 pixels
Display aspect ratio : 16:9
Frame rate mode : Constant
Frame rate : 29.970 (30000/1001) FPS
Color space : YUV
Chroma subsampling : 4:2:0
Bit depth : 8 bits
Scan type : Progressive
Bits/(Pixel*Frame) : 0.097
Stream size : 462 MiB (93%)
Writing library : x264 core 146 r2538 121396c
Encoding settings : cabac=1 / ref=5 / deblock=1:0:0 / analyse=0x3:0x113 / me=umh / subme=8 / psy=1 / psy_rd=1.00:0.00 / mixed_ref=1 / me_range=16 / chroma_me=1 / trellis=1 / 8x8dct=1 / cqm=0 / deadzone=21,11 / fast_pskip=1 / chroma_qp_offset=-2 / threads=48 / lookahead_threads=8 / sliced_threads=0 / nr=0 / decimate=1 / interlaced=0 / bluray_compat=0 / constrained_intra=0 / bframes=3 / b_pyramid=2 / b_adapt=2 / b_bias=0 / direct=3 / weightb=1 / open_gop=0 / weightp=2 / keyint=60 / keyint_min=6 / scenecut=40 / intra_refresh=0 / rc_lookahead=50 / rc=abr / mbtree=1 / bitrate=6000 / ratetol=1.0 / qcomp=0.60 / qpmin=0 / qpmax=69 / qpstep=4 / ip_ratio=1.40 / aq=1:1.00
Tagged date : UTC 2016-04-27 20:28:51

Audio
ID : 2
Format : AAC
Format/Info : Advanced Audio Codec
Format profile : LC
Codec ID : mp4a-40-2
Duration : 10 min 53 s
Duration_LastFrame : -1 ms
Bit rate mode : Constant
Bit rate : 192 kb/s
Channel(s) : 2 channels
Channel positions : Front: L R
Sampling rate : 48.0 kHz
Frame rate : 46.875 FPS (1024 SPF)
Compression mode : Lossy
Stream size : 15.0 MiB (3%)
Default : Yes
Alternate group : 1
Tagged date : UTC 2016-04-27 20:28:51

Other #1
ID : 65536
Type : Hint
Format : RTP
Codec ID : rtp
Duration : 10 min 53 s
Encoded date : UTC 2016-04-27 20:28:49
Tagged date : UTC 2016-04-27 20:28:51

Other #2
ID : 65537
Type : Hint
Format : RTP
Codec ID : rtp
Duration : 10 min 53 s
Encoded date : UTC 2016-04-27 20:28:51
Tagged date : UTC 2016-04-27 20:28:51
Bit rate mode : VBR
General
Complete name : K:\Анастасия Пантелеева\[PlayboyPlus]\Video\2017-02-17 Lilii - Soft And Fresh.mp4
Format : MPEG-4
Format profile : Base Media
Codec ID : isom (isom/iso2/avc1/mp41)
File size : 389 MiB
Duration : 8 min 55 s
Overall bit rate : 6 104 kb/s
Movie name : Торрент скачан с трекера ..., автор релиза hungaroton
Writing application : Lavf57.56.100
Comment : Торрент скачан с трекера ..., автор релиза hungaroton

Video
ID : 1
Format : AVC
Format/Info : Advanced Video Codec
Format profile : [email protected]
Format settings : CABAC / 5 Ref Frames
Format settings, CABAC : Yes
Format settings, ReFrames : 5 frames
Codec ID : avc1
Codec ID/Info : Advanced Video Coding
Duration : 8 min 55 s
Bit rate : 6 000 kb/s
Width : 1 920 pixels
Height : 1 080 pixels
Display aspect ratio : 16:9
Frame rate mode : Constant
Frame rate : 29.970 (30000/1001) FPS
Color space : YUV
Chroma subsampling : 4:2:0
Bit depth : 8 bits
Scan type : Progressive
Bits/(Pixel*Frame) : 0.097
Stream size : 376 MiB (97%)
Writing library : x264 core 148 r2665 a01e339
Encoding settings : cabac=1 / ref=5 / deblock=1:0:0 / analyse=0x3:0x113 / me=umh / subme=8 / psy=1 / psy_rd=1.00:0.00 / mixed_ref=1 / me_range=16 / chroma_me=1 / trellis=1 / 8x8dct=1 / cqm=0 / deadzone=21,11 / fast_pskip=1 / chroma_qp_offset=-2 / threads=34 / lookahead_threads=5 / sliced_threads=0 / nr=0 / decimate=1 / interlaced=0 / bluray_compat=0 / constrained_intra=0 / bframes=3 / b_pyramid=2 / b_adapt=2 / b_bias=0 / direct=3 / weightb=1 / open_gop=0 / weightp=2 / keyint=60 / keyint_min=6 / scenecut=40 / intra_refresh=0 / rc_lookahead=50 / rc=abr / mbtree=1 / bitrate=6000 / ratetol=1.0 / qcomp=0.60 / qpmin=0 / qpmax=69 / qpstep=4 / ip_ratio=1.40 / aq=1:1.00

Audio
ID : 2
Format : AAC
Format/Info : Advanced Audio Codec
Format profile : LC
Codec ID : mp4a-40-2
Duration : 8 min 55 s
Duration_LastFrame : -19 ms
Bit rate mode : Constant
Bit rate : 198 kb/s
Channel(s) : 2 channels
Channel positions : Front: L R
Sampling rate : 48.0 kHz
Frame rate : 46.875 FPS (1024 SPF)
Compression mode : Lossy
Stream size : 12.6 MiB (3%)
Default : Yes
Alternate group : 1
General
Complete name : K:\Анастасия Пантелеева\[PlayboyPlus]\Video\2017-05-18 Lilii - Ocean Breeze.mp4
Format : MPEG-4
Format profile : Base Media
Codec ID : isom (isom/iso2/avc1/mp41)
File size : 342 MiB
Duration : 7 min 49 s
Overall bit rate : 6 103 kb/s
Writing application : Lavf57.28.100

Video
ID : 1
Format : AVC
Format/Info : Advanced Video Codec
Format profile : [email protected]
Format settings : CABAC / 5 Ref Frames
Format settings, CABAC : Yes
Format settings, ReFrames : 5 frames
Codec ID : avc1
Codec ID/Info : Advanced Video Coding
Duration : 7 min 49 s
Bit rate : 6 000 kb/s
Width : 1 920 pixels
Height : 1 080 pixels
Display aspect ratio : 16:9
Frame rate mode : Constant
Frame rate : 29.970 (30000/1001) FPS
Color space : YUV
Chroma subsampling : 4:2:0
Bit depth : 8 bits
Scan type : Progressive
Bits/(Pixel*Frame) : 0.097
Stream size : 331 MiB (97%)
Writing library : x264 core 148 r2665 a01e339
Encoding settings : cabac=1 / ref=5 / deblock=1:0:0 / analyse=0x3:0x113 / me=umh / subme=8 / psy=1 / psy_rd=1.00:0.00 / mixed_ref=1 / me_range=16 / chroma_me=1 / trellis=1 / 8x8dct=1 / cqm=0 / deadzone=21,11 / fast_pskip=1 / chroma_qp_offset=-2 / threads=34 / lookahead_threads=5 / sliced_threads=0 / nr=0 / decimate=1 / interlaced=0 / bluray_compat=0 / constrained_intra=0 / bframes=3 / b_pyramid=2 / b_adapt=2 / b_bias=0 / direct=3 / weightb=1 / open_gop=0 / weightp=2 / keyint=60 / keyint_min=6 / scenecut=40 / intra_refresh=0 / rc_lookahead=50 / rc=abr / mbtree=1 / bitrate=6000 / ratetol=1.0 / qcomp=0.60 / qpmin=0 / qpmax=69 / qpstep=4 / ip_ratio=1.40 / aq=1:1.00
Tagged date : UTC 2017-05-11 20:01:43

Audio
ID : 2
Format : AAC
Format/Info : Advanced Audio Codec
Format profile : LC
Codec ID : mp4a-40-2
Duration : 7 min 49 s
Source duration : 7 min 49 s
Source_Duration_LastFrame : -11 ms
Bit rate mode : Constant
Bit rate : 192 kb/s
Channel(s) : 2 channels
Channel positions : Front: L R
Sampling rate : 48.0 kHz
Frame rate : 46.875 FPS (1024 SPF)
Compression mode : Lossy
Stream size : 10.9 MiB (3%)
Source stream size : 10.9 MiB (3%)
Default : Yes
Alternate group : 1
Tagged date : UTC 2017-05-11 20:01:43
General
Complete name : K:\Анастасия Пантелеева\[PlayboyPlus]\Video\2017-05-25 Lilii - Secret Rendezvous.mp4
Format : MPEG-4
Format profile : Base Media
Codec ID : isom (isom/iso2/avc1/mp41)
File size : 459 MiB
Duration : 10 min 24 s
Overall bit rate : 6 161 kb/s
Writing application : Lavf57.28.100

Video
ID : 1
Format : AVC
Format/Info : Advanced Video Codec
Format profile : [email protected]
Format settings : CABAC / 5 Ref Frames
Format settings, CABAC : Yes
Format settings, ReFrames : 5 frames
Codec ID : avc1
Codec ID/Info : Advanced Video Coding
Duration : 10 min 24 s
Bit rate : 6 000 kb/s
Width : 1 920 pixels
Height : 1 080 pixels
Display aspect ratio : 16:9
Frame rate mode : Constant
Frame rate : 29.970 (30000/1001) FPS
Color space : YUV
Chroma subsampling : 4:2:0
Bit depth : 8 bits
Scan type : Progressive
Bits/(Pixel*Frame) : 0.097
Stream size : 444 MiB (97%)
Writing library : x264 core 148 r2665 a01e339
Encoding settings : cabac=1 / ref=5 / deblock=1:0:0 / analyse=0x3:0x113 / me=umh / subme=8 / psy=1 / psy_rd=1.00:0.00 / mixed_ref=1 / me_range=16 / chroma_me=1 / trellis=1 / 8x8dct=1 / cqm=0 / deadzone=21,11 / fast_pskip=1 / chroma_qp_offset=-2 / threads=34 / lookahead_threads=5 / sliced_threads=0 / nr=0 / decimate=1 / interlaced=0 / bluray_compat=0 / constrained_intra=0 / bframes=3 / b_pyramid=2 / b_adapt=2 / b_bias=0 / direct=3 / weightb=1 / open_gop=0 / weightp=2 / keyint=60 / keyint_min=6 / scenecut=40 / intra_refresh=0 / rc_lookahead=50 / rc=abr / mbtree=1 / bitrate=6000 / ratetol=1.0 / qcomp=0.60 / qpmin=0 / qpmax=69 / qpstep=4 / ip_ratio=1.40 / aq=1:1.00
Tagged date : UTC 2017-05-17 16:17:25

Audio
ID : 2
Format : AAC
Format/Info : Advanced Audio Codec
Format profile : LC
Codec ID : mp4a-40-2
Duration : 10 min 24 s
Source duration : 10 min 24 s
Source_Duration_LastFrame : -5 ms
Bit rate mode : Constant
Bit rate : 199 kb/s
Channel(s) : 2 channels
Channel positions : Front: L R
Sampling rate : 48.0 kHz
Frame rate : 46.875 FPS (1024 SPF)
Compression mode : Lossy
Stream size : 14.8 MiB (3%)
Source stream size : 14.8 MiB (3%)
Default : Yes
Alternate group : 1
Tagged date : UTC 2017-05-17 16:17:25
General
Complete name : K:\Анастасия Пантелеева\[PlayboyPlus]\Video\2017-10-02 Lilii - Mandy Kay, Melissa Lolita, Natasha Ty, Sabrina Nichole - Mashup Sexy In Socks Vol. 3.mp4
Format : MPEG-4
Format profile : Base Media / Version 2
Codec ID : mp42 (mp42/mp41)
File size : 499 MiB
Duration : 11 min 17 s
Overall bit rate mode : Variable
Overall bit rate : 6 185 kb/s
Encoded date : UTC 2017-09-22 20:55:49
Tagged date : UTC 2017-09-22 20:56:07
TIM : 00:00:00:00
TSC : 30
TSZ : 1

Video
ID : 1
Format : AVC
Format/Info : Advanced Video Codec
Format profile : [email protected]
Format settings : CABAC / 4 Ref Frames
Format settings, CABAC : Yes
Format settings, ReFrames : 4 frames
Codec ID : avc1
Codec ID/Info : Advanced Video Coding
Duration : 11 min 17 s
Bit rate : 5 990 kb/s
Width : 1 920 pixels
Height : 1 080 pixels
Display aspect ratio : 16:9
Frame rate mode : Constant
Frame rate : 30.000 FPS
Standard : NTSC
Color space : YUV
Chroma subsampling : 4:2:0
Bit depth : 8 bits
Scan type : Progressive
Bits/(Pixel*Frame) : 0.096
Stream size : 484 MiB (97%)
Language : English
Encoded date : UTC 2017-09-22 20:55:49
Tagged date : UTC 2017-09-22 20:55:49
Color range : Limited
Color primaries : BT.709
Transfer characteristics : BT.709
Matrix coefficients : BT.709

Audio
ID : 2
Format : AAC
Format/Info : Advanced Audio Codec
Format profile : LC
Codec ID : mp4a-40-2
Duration : 11 min 17 s
Source duration : 11 min 17 s
Bit rate mode : Variable
Bit rate : 192 kb/s
Maximum bit rate : 304 kb/s
Channel(s) : 2 channels
Channel positions : Front: L R
Sampling rate : 48.0 kHz
Frame rate : 46.875 FPS (1024 SPF)
Compression mode : Lossy
Stream size : 15.3 MiB (3%)
Source stream size : 15.3 MiB (3%)
Language : English
Encoded date : UTC 2017-09-22 20:55:49
Tagged date : UTC 2017-09-22 20:55:49
General
Complete name : K:\Анастасия Пантелеева\[PlayboyPlus]\Video\2017-11-02 Lilii - Summer Daze.mp4
Format : MPEG-4
Format profile : Base Media / Version 2
Codec ID : mp42 (mp42/mp41)
File size : 364 MiB
Duration : 8 min 13 s
Overall bit rate mode : Variable
Overall bit rate : 6 178 kb/s
Encoded date : UTC 2017-10-26 23:38:22
Tagged date : UTC 2017-10-26 23:38:34
TIM : 00:00:00:00
TSC : 30
TSZ : 1

Video
ID : 1
Format : AVC
Format/Info : Advanced Video Codec
Format profile : [email protected]
Format settings : CABAC / 4 Ref Frames
Format settings, CABAC : Yes
Format settings, ReFrames : 4 frames
Codec ID : avc1
Codec ID/Info : Advanced Video Coding
Duration : 8 min 13 s
Bit rate : 5 985 kb/s
Width : 1 920 pixels
Height : 1 080 pixels
Display aspect ratio : 16:9
Frame rate mode : Constant
Frame rate : 30.000 FPS
Standard : NTSC
Color space : YUV
Chroma subsampling : 4:2:0
Bit depth : 8 bits
Scan type : Progressive
Bits/(Pixel*Frame) : 0.096
Stream size : 352 MiB (97%)
Language : English
Encoded date : UTC 2017-10-26 23:38:22
Tagged date : UTC 2017-10-26 23:38:22
Color range : Limited
Color primaries : BT.709
Transfer characteristics : BT.709
Matrix coefficients : BT.709

Audio
ID : 2
Format : AAC
Format/Info : Advanced Audio Codec
Format profile : LC
Codec ID : mp4a-40-2
Duration : 8 min 13 s
Source duration : 8 min 13 s
Bit rate mode : Variable
Bit rate : 192 kb/s
Maximum bit rate : 299 kb/s
Channel(s) : 2 channels
Channel positions : Front: L R
Sampling rate : 48.0 kHz
Frame rate : 46.875 FPS (1024 SPF)
Compression mode : Lossy
Stream size : 11.2 MiB (3%)
Source stream size : 11.2 MiB (3%)
Language : English
Encoded date : UTC 2017-10-26 23:38:22
Tagged date : UTC 2017-10-26 23:38:22
General
Complete name : K:\Анастасия Пантелеева\[PlayboyPlus]\Video\2017-11-17 Lilii - Sun Goddess.mp4
Format : MPEG-4
Format profile : Base Media / Version 2
Codec ID : mp42 (mp42/mp41)
File size : 336 MiB
Duration : 7 min 37 s
Overall bit rate mode : Variable
Overall bit rate : 6 153 kb/s
Encoded date : UTC 2017-11-13 22:10:18
Tagged date : UTC 2017-11-13 22:10:32
TIM : 00:00:00:00
TSC : 30
TSZ : 1

Video
ID : 1
Format : AVC
Format/Info : Advanced Video Codec
Format profile : [email protected]
Format settings : CABAC / 4 Ref Frames
Format settings, CABAC : Yes
Format settings, ReFrames : 4 frames
Codec ID : avc1
Codec ID/Info : Advanced Video Coding
Duration : 7 min 37 s
Bit rate : 5 958 kb/s
Width : 1 920 pixels
Height : 1 080 pixels
Display aspect ratio : 16:9
Frame rate mode : Constant
Frame rate : 30.000 FPS
Standard : NTSC
Color space : YUV
Chroma subsampling : 4:2:0
Bit depth : 8 bits
Scan type : Progressive
Bits/(Pixel*Frame) : 0.096
Stream size : 325 MiB (97%)
Language : English
Encoded date : UTC 2017-11-13 22:10:18
Tagged date : UTC 2017-11-13 22:10:18
Color range : Limited
Color primaries : BT.709
Transfer characteristics : BT.709
Matrix coefficients : BT.709

Audio
ID : 2
Format : AAC
Format/Info : Advanced Audio Codec
Format profile : LC
Codec ID : mp4a-40-2
Duration : 7 min 37 s
Source duration : 7 min 37 s
Bit rate mode : Variable
Bit rate : 192 kb/s
Maximum bit rate : 288 kb/s
Channel(s) : 2 channels
Channel positions : Front: L R
Sampling rate : 48.0 kHz
Frame rate : 46.875 FPS (1024 SPF)
Compression mode : Lossy
Stream size : 10.3 MiB (3%)
Source stream size : 10.3 MiB (3%)
Language : English
Encoded date : UTC 2017-11-13 22:10:18
Tagged date : UTC 2017-11-13 22:10:18
General
Complete name : K:\Анастасия Пантелеева\[PlayboyPlus]\Video\2017-11-29 Lilii - River Odyssey.mp4
Format : MPEG-4
Format profile : Base Media / Version 2
Codec ID : mp42 (mp42/mp41)
File size : 358 MiB
Duration : 8 min 6 s
Overall bit rate mode : Variable
Overall bit rate : 6 176 kb/s
Encoded date : UTC 2017-11-21 05:07:14
Tagged date : UTC 2017-11-21 05:07:23
TIM : 00:00:00:00
TSC : 30
TSZ : 1

Video
ID : 1
Format : AVC
Format/Info : Advanced Video Codec
Format profile : [email protected]
Format settings : CABAC / 4 Ref Frames
Format settings, CABAC : Yes
Format settings, ReFrames : 4 frames
Codec ID : avc1
Codec ID/Info : Advanced Video Coding
Duration : 8 min 6 s
Bit rate : 5 982 kb/s
Width : 1 920 pixels
Height : 1 080 pixels
Display aspect ratio : 16:9
Frame rate mode : Constant
Frame rate : 30.000 FPS
Standard : NTSC
Color space : YUV
Chroma subsampling : 4:2:0
Bit depth : 8 bits
Scan type : Progressive
Bits/(Pixel*Frame) : 0.096
Stream size : 347 MiB (97%)
Language : English
Encoded date : UTC 2017-11-21 05:07:14
Tagged date : UTC 2017-11-21 05:07:14
Color range : Limited
Color primaries : BT.709
Transfer characteristics : BT.709
Matrix coefficients : BT.709

Audio
ID : 2
Format : AAC
Format/Info : Advanced Audio Codec
Format profile : LC
Codec ID : mp4a-40-2
Duration : 8 min 6 s
Source duration : 8 min 6 s
Bit rate mode : Variable
Bit rate : 192 kb/s
Maximum bit rate : 293 kb/s
Channel(s) : 2 channels
Channel positions : Front: L R
Sampling rate : 48.0 kHz
Frame rate : 46.875 FPS (1024 SPF)
Compression mode : Lossy
Stream size : 11.0 MiB (3%)
Source stream size : 11.0 MiB (3%)
Language : English
Encoded date : UTC 2017-11-21 05:07:14
Tagged date : UTC 2017-11-21 05:07:14
General
Complete name : K:\Анастасия Пантелеева\[PlayboyPlus]\Video\2018-07-01 Elyse Jean & Julie Ambrose & Lilii & Marlee May - Mashup; Great Outdoors Vol. 5..mp4
Format : MPEG-4
Format profile : Base Media / Version 2
Codec ID : mp42 (mp42/mp41)
File size : 478 MiB
Duration : 10 min 47 s
Overall bit rate mode : Variable
Overall bit rate : 6 190 kb/s
Encoded date : UTC 2018-06-27 01:36:41
Tagged date : UTC 2018-06-27 01:37:00
TIM : 00;00;00;00
TSC : 30000
TSZ : 1001

Video
ID : 1
Format : AVC
Format/Info : Advanced Video Codec
Format profile : [email protected]
Format settings : CABAC / 4 Ref Frames
Format settings, CABAC : Yes
Format settings, ReFrames : 4 frames
Codec ID : avc1
Codec ID/Info : Advanced Video Coding
Duration : 10 min 47 s
Bit rate : 5 993 kb/s
Width : 1 920 pixels
Height : 1 080 pixels
Display aspect ratio : 16:9
Frame rate mode : Constant
Frame rate : 30.000 FPS
Standard : NTSC
Color space : YUV
Chroma subsampling : 4:2:0
Bit depth : 8 bits
Scan type : Progressive
Bits/(Pixel*Frame) : 0.096
Stream size : 463 MiB (97%)
Language : English
Encoded date : UTC 2018-06-27 01:36:41
Tagged date : UTC 2018-06-27 01:36:41
Color range : Limited
Color primaries : BT.709
Transfer characteristics : BT.709
Matrix coefficients : BT.709

Audio
ID : 2
Format : AAC
Format/Info : Advanced Audio Codec
Format profile : LC
Codec ID : mp4a-40-2
Duration : 10 min 47 s
Source duration : 10 min 47 s
Bit rate mode : Variable
Bit rate : 192 kb/s
Maximum bit rate : 306 kb/s
Channel(s) : 2 channels
Channel positions : Front: L R
Sampling rate : 48.0 kHz
Frame rate : 46.875 FPS (1024 SPF)
Compression mode : Lossy
Stream size : 14.6 MiB (3%)
Source stream size : 14.6 MiB (3%)
Language : English
Encoded date : UTC 2018-06-27 01:36:41
Tagged date : UTC 2018-06-27 01:36:41
Коллекция фотосетов

Трекер:  [ 11-Июл-2018 20:40 ]

  

Скачать .torrent

Размер .torrent файла 26 KB


Размер: 4.97 GB
Хэш (hash) релиза: 95562bfcfa53ea548ebb338706d48dc00c6ad66c

Еще никто не оставлял запись к записи скачать торрент [PlayboyPlus.com] 2016-04-25-2018-07-01 Lilil - Collection . Будь первым!

!Обратная связь