Tiên Hiệp Truyện | Романтика | Show Everything

Скачать через торрент Баллада о Лефти Брауне The Ballad of Lefty Brown Фильм бесплатно в хорошем качестве torrent

Скачивайте на UnionPeer.org фильмы через торрент без регистрации. Новинки кино в хорошем качестве через торрент. На UnionPeer.org можно скачать через торрент фильмы 2014 и 2015 годов. Самые новые фильмы.

Скачать торрент Баллада о Лефти Брауне The Ballad of Lefty Brown бесплатно через .torrent фильм мультфильм сериал

Статистика раздачи
Размер:  1.46 GB   |    Зарегистрирован:  8 дней   |    .torrent скачан:  89 раз   |   
Раздают:  1   Качают:  2  
   
загрузка...
 
Автор Сообщение

Galfimbul

avatar Galfimbul


Баллада о Лефти Брауне / The Ballad of Lefty Brown

Страна: США
Студия: Higher Content, Om Films, Armian Pictures
Жанр: Вестерн, боевик, драма, приключения
Год выпуска: 2017
Продолжительность: 01:51:44

Перевод: Авторский (одноголосый закадровый) Антон Карповский
Субтитры: нет
Оригинальная аудиодорожка: нет

Режиссер: Джаред Моше / Jared Moshe

В ролях: Билл Пуллман, Кэти Бейкер, Питер Фонда, Джеймс Кэвизел, Джозеф Андерсон, Джо Андерсон, Диего Джозеф, Томми Флэнаган, Стивен Алан Седер, Тайсон Герхардт, Льюис Пуллман

Описание: В основе сценария - простоватый герой, который почти в одиночку сражается с негодяями. Лефти Браун - старик, которому за 60, косноязычный, хромой, потрёпанный жизнью герой былых времён, о котором не слагают легенд. Скоро через маленький городок, где Лефти работает на ранчо у своего друга сенатора Эдди Джонсона, будет проложена железная дорога, а дикие времена останутся в прошлом. Но тут неожиданно убивают Эдди, а вдова покойного подозревает самого Лефти в организации убийства своего мужа. Старик обещает достать настоящего убийцу, и пускается в преследование. Но как выясняется, поймать убийцу и расправиться с ним - это даже не пол- дела. Всё гораздо сложнее , драматичнее.... Лефти придётся не просто отстоять своё честное имя, и расправиться с преступниками, ему предстоит смерить новый нарождающийся мир старыми мерками Дикого Запада.

Дополнительная информация:
Автор релиза -
Заказ перевода у Антона Карповского (июль 2018) - ylnian
За сборку дороги спасибо rammzez
Источник для рипа - Blu-Ray (USA) - The.Ballad.of.Lefty.Brown.2017.BluRay.1080p.AVC.DTS-HD.MA5.1-MTeam

Рекламы нет!

Описание из рецензии Антона Карповского



Сэмпл: http://yadi.sk/i/NKRCxmrV3Z4mYW

Качество видео: BDRip
Формат видео: AVI

Видео: XviD, 720x304 (2,35:1), 23.976 fps, 1413 kbps, 0.269 bit/pixel
Аудио: Русский AC3, 48000 Гц, 6ch, 448 kbps
ОбщееПолное имя : D:\The.Ballad.of.Lefty.Brown.2017.BDRip-ylnian.aviФормат : AVIФормат/Информация : Audio Video InterleaveРазмер файла : 1,46 ГбайтПродолжительность : 1 ч. 51 м.Общий поток : 1871 Кбит/секПрограмма кодирования : VirtualDubMod 1.5.10.3 | www.virtualdub-fr.org || (build 2550/release)Библиотека кодирования : VirtualDubMod build 2550/release

ВидеоИдентификатор : 0Формат : MPEG-4 VisualПрофиль формата : Advanced [email protected]Настройки формата : BVOP1Параметр BVOP формата : 1Параметр QPel формата : НетПараметр GMC формата : Без точки переходаПараметр матрицы формата : Default (MPEG)Идентификатор кодека : XVIDИдентификатор кодека/Подсказка : XviDПродолжительность : 1 ч. 51 м.Битрейт : 1413 Кбит/секШирина : 720 пикселейВысота : 304 пикселяСоотношение сторон : 2,35:1Частота кадров : 23,976 (24000/1001) кадра/секЦветовое пространство : YUVСубдискретизация насыщенности : 4:2:0Битовая глубина : 8 битТип развёртки : ПрогрессивнаяМетод сжатия : С потерямиБит/(Пиксели*Кадры) : 0.269Размер потока : 1,10 Гбайт (76%)Библиотека кодирования : XviD 67

АудиоИдентификатор : 1Формат : AC-3Формат/Информация : Audio Coding 3Идентификатор кодека : 2000Продолжительность : 1 ч. 51 м.Вид битрейта : ПостоянныйБитрейт : 448 Кбит/секКаналы : 6 каналовРасположение каналов : Front: L C R, Side: L R, LFEЧастота : 48,0 КГцЧастота кадров : 31,250 кадров/сек (1536 SPF)Битовая глубина : 16 битМетод сжатия : С потерямиРазмер потока : 358 Мбайт (24%)Выравнивание : Разделение по промежуткамПродолжительность промежутка : 42 мс. (1,00 видеокадр)Время предзагрузки промежутка : 500 мс.Заголовок : RUS - AVO - KarpovskyServiceKind/String : Complete Main


Трекер:  [ 11-Июл-2018 20:30 ]

  

Скачать .torrent

Размер .torrent файла 15 KB


Размер: 1.46 GB
Хэш (hash) релиза: a402bd6cd454ab3a83ecacf4ce14c340187798d9
Подписка на обновления:

Торренты, похожие на Баллада о Лефти Брауне The Ballad of Lefty Brown скачать торрент

Форум Название Автор Размер S L Добавлен
Зарубежные фильмы 2016-2018 (Новинки зарубежного кино) ·%· Баллада о Лефти Брауне / The Ballad of Lefty Brown (2017) BDRip 1080p | A Galfimbul 1593159694714.84 GB 3 0 1531986614

10:50

19-Июл-18

Зарубежные фильмы до 2016 ·%· Баллада о Лефти Брауне / The Ballad of Lefty Brown (Джаред Моше / Jared Moshe) [2017, США, Вестерн, боевик, драма, приключения, BDRip 720p] AVO (Карповский) + Original Eng + Comm Eng + Sub Eng, Spa, Pol, Dut, Ita, Bul, Tur, Cro, Por, Gre Galfimbul 87724448218.17 GB 2 0 1531659706

16:01

15-Июл-18

Зарубежные фильмы до 2016 ·%· Баллада о Лефти Брауне / The Ballad of Lefty Brown (Джаред Моше / Jared Moshe) [2017, США, Вестерн, боевик, драма, приключения, BDRemux 1080p] AVO (Карповский) + Original Eng + Comm Eng + Sub Eng, Spa, Pol, Dut, Ita, Bul, Tur, Cro, Por, Gre Galfimbul 3523546711932.82 GB 0 0 1531659698

16:01

15-Июл-18

Зарубежные фильмы 2016-2018 (Новинки зарубежного кино) ·· Баллада о Лефти Брауне / The Ballad of Lefty Brown (Джаред Моше) [2017, вестерн, HDRip 720p] GreenРай Studio Galfimbul 38885626893.62 GB 0 0 1526192164

09:16

13-Май-18

Зарубежные фильмы 2016-2018 (Новинки зарубежного кино) ·· Баллада о Лефти Брауне / The Ballad of Lefty Brown (Джаред Моше) [2017, вестерн, HDRip] GreenРай Studio Galfimbul 14741022101.37 GB 2 0 1526163810

01:23

13-Май-18

Зарубежные фильмы 2016-2018 (Новинки зарубежного кино) ·· Баллада о Лефти Брауне / The Ballad of Lefty Brown (Джаред Моше) [2017, вестерн, WEB-DLRip] Galfimbul 15219712001.42 GB 0 0 1516670478

04:21

23-Янв-18

Зарубежные фильмы 2016-2018 (Новинки зарубежного кино) ·· Баллада о Лефти Брауне / The Ballad of Lefty Brown (Джаред Моше) [2017, вестерн, WEB-DLRip 720p] Galfimbul 41865748043.9 GB 2 0 1516670466

04:21

23-Янв-18

Еще никто не оставлял запись к записи скачать торрент Баллада о Лефти Брауне The Ballad of Lefty Brown . Будь первым!

!Обратная связь