Hanebado! | ver White Boy Rick 2018 megashare línea gratis | Jogos populares nas últimas 24 Horas

Скачать через торрент музыку Чайковский и Трубы Мира - Дискография 1997-2018 - 11 альбомов, MP3, 320 kbps бесплатно без регистрации torrent

Статистика раздачи
Размер:  1.28 GB   |    Зарегистрирован:  9 дней   |    .torrent скачан:  25 раз   |   
Раздают:  1  
   
загрузка...
 
Автор Сообщение

Galfimbul

avatar Galfimbul


Чайковский и Трубы Мира / Дискография 1997-2018

Жанр: Rock
Страна: Россия
Город: Иркутск
Год издания: 1997-2012
Аудиокодек: MP3
Тип рипа: tracks
Битрейт аудио: 320 kbps
Продолжительность: 9:00:59
Источник: CD
Наличие сканов в содержимом раздачи: нет
Треклист:01. Весна (3:50)02. То не вечер (4:21)03. Письмо (4:22)04. Моя прелесть (3:34)05. Синяя песня (The Angel) (5:56)06. Сказка (2:55)07. Requiescat (3:31)08. Muse (1:56)09. A poison tree (5:21)10. MM (3:11)11. Зима (2:26)12. The winter wind (2:49)13. Sonnet № 71 (2:49)
Треклист:01. Январь (Зима) (2:38)02. Февраль (Февраль) (4:29)03. Март (Письмо) (4:34)04. Апрель (Ты одна) (3:46)05. Май (Май) (4:32)06. Июнь (Лето) (6:53)07. Июль (Заболею) (3:56)08. Август (Наши шаги) (4:53)09. Сентябрь (Осень) (4:18)10. Октябрь (Blow) (5:03)11. Ноябрь (Не со мной) (5:38)12. Декабрь (Мы) (3:30)
Треклист:01. Стервенею (2:15)02. Весна (4:06)03. Самолюбие (2:29)04. Лето (8:02)05. Письмо (4:07)06. Конура (4:14)07. За-дело (4:40)08. Заболею (3:56)09. Гангстерская (4:03)10. Ожидало поле (4:59)
Треклист:01. Саломея (5:09)02. Листья пейотля (3:38)03. Кавалерия (4:12)04. Самолюбие (3:11)05. Лётчик (4:49)06. Стражи полночи (3:42)07. Призрачный бес (2:52)08. Пресноводные (3:39)09. Волновая (3:47)10. Лисица (4:18)P.S. Кармический ветер (5:42)
Треклист:01. Попутчик (3:39)02. James Brown (За-дело) (3:08)03. Северный край (3:23)04. Печаль (5:01)05. Ты меня понял? (4:29)06. Пурга (4:05)07. В режиме сна (5:11)08. Хоба-хоба (3:31)09. Мужики (5:37)10. Таксомотор (3:27)11. Бомжовый рок-н-ролл (3:55)12. Экспресс (4:10)13. За-дело (4:12)14. Конура (5:15)15. Здоровье (3:42)
Треклист:01. Нагваль (3:29)02. Мария (2:10)03. Английская (3:38)04. Гондурас (4:17)05. Испанская (3:45)06. Французская (3:47)07. Утренний скорый (2:52)08. Тифлис (3:53)09. Автобус (4:10)10. Луна (3:19)11. Золотые поля (4:04)12. Зори (5:59)13. Русская (3:04)14. Текила (4:46)15. Ковбойская (2:48)16. Самолёт (3:25)17. Слишком поздно (5:11)18. Сан-Франциско (3:42)19. Компаньеро (3:51)
Треклист:01. Анархия (2:58)02. Новый день (3:55)03. Жди меня (3:14)04. Жар птица (4:27)05. Анабиоз (3:12)06. Героин (4:20)07. Тяжелые будни (3:15)08. Пустельга (2:14)09. Корни (3:25)10. Леди (2:27)11. Фениксы (3:01)12. Луна в стакане (2:40)13. Краски (2:54)14. Охотник (2:07)15. Территория любви (4:37)16. Северный склон (3:25)17. Литий (2:36)18. Баклуши (2:57)
Треклист:01. Запоздавшие рассветы(4:03)02. Здравствуй! (3:56)03. Перламутровая вьюга (3:47)04. Сонет №319 (1:37)05. Побег (3:38)06. Зима (3:31)07. Дорога (2:40)08. Революция (3:14)
Треклист:01. Дорога домой (3:23)02. Блюз весеннего запоя (2:41)03. Вселенское танго (4:51)04. Говори (4:57)05. 35-й дом (2:28)06. Ангел (4:40)07. Вороново крыло (3:13)08. Вино (5:02)09. Смерть капитализма (3:02)10. Мастер-блюз (4:08)11. Кит (2:39)12. Мама-блюз (4:20)13. Топорейшн блюз (3:19)14. Друзьям (5:19)
Треклист:01. Нам с тобой (2:50)02. Дозорные (2:09)03. Голос моря (2:11)04. Аве (2:50)05. След ночной воды (3:29)06. Всадники апокалипсиса (2:17)07. Испанская осень (2:15)08. Без тебя (1:39)
Треклист:01. Индеец (3:1102. Психофизики (4:47)03. Роман о заболевших кошках (3:52)04. Сказки Венского леса (3:36)05. Башмаки (3:11)06. Не спи, зима (5:30)07. Человек по имени Боро (2:41)08. Райский сад (3:04)09. Мужик с топором (3:56)10. Последние мечты (4:00)11. Пароход (3:15)12. Боль моя (4:39)13. Иркутска богема (4:13)14. Тонкое тело (3:42)15. Паяц (4:37)
<div class="sp-wrap">
<div class="sp-head folded">Отчёт EAC Детский альбом</div>
<div class="sp-body">

Exact Audio Copy V0.99 prebeta 5 from 4. May 2009

EAC extraction logfile from 2. August 2010, 12:08

Антон Чайковский / Детский Альбом

Used drive : Optiarc DVD RW AD-7173A Adapter: 1 ID: 1

Read mode : SecureUtilize accurate stream : YesDefeat audio cache : NoMake use of C2 pointers : Yes

Combined read/write offset correction : 0Overread into Lead-In and Lead-Out : NoFill up missing offset samples with silence : YesDelete leading and trailing silent blocks : NoNull samples used in CRC calculations : YesUsed interface : Native Win32 interface for Win NT & 2000Gap handling : Not detected, thus appended to previous track

Used output format : LAME MP3 EncoderSelected bitrate : 320 kBit/sQuality : HighAdd ID3 tag : NoCommand line compressor : G:\Program Files\Exact Audio Copy\lame.exe

TOC of the extracted CD

Track | Start | Length | Start sector | End sector --------------------------------------------------------- 1 | 0:00.00 | 3:50.10 | 0 | 17259 2 | 3:50.10 | 4:21.58 | 17260 | 36892 3 | 8:11.68 | 4:22.45 | 36893 | 56587 4 | 12:34.38 | 3:34.27 | 56588 | 72664 5 | 16:08.65 | 5:56.00 | 72665 | 99364 6 | 22:04.65 | 2:55.44 | 99365 | 112533 7 | 25:00.34 | 3:31.37 | 112534 | 128395 8 | 28:31.71 | 1:56.00 | 128396 | 137095 9 | 30:27.71 | 5:21.07 | 137096 | 161177 10 | 35:49.03 | 3:11.37 | 161178 | 175539 11 | 39:00.40 | 2:26.15 | 175540 | 186504 12 | 41:26.55 | 2:49.13 | 186505 | 199192 13 | 44:15.68 | 4:10.28 | 199193 | 217970

Track 1

Filename G:\Documents and Settings\Acoustic Lion\Мои документы\чайк\да\01. Антон Чайковский - Весна.wav

Peak level 97.7 % Track quality 99.9 % Copy CRC 70A53D23 Copy OK

Track 2

Filename G:\Documents and Settings\Acoustic Lion\Мои документы\чайк\да\02. Антон Чайковский - То не вечер.wav

Peak level 86.7 % Track quality 100.0 % Copy CRC 7A5AEB60 Copy OK

Track 3

Filename G:\Documents and Settings\Acoustic Lion\Мои документы\чайк\да\03. Антон Чайковский - Письмо.wav

Peak level 98.0 % Track quality 100.0 % Copy CRC BFB18512 Copy OK

Track 4

Filename G:\Documents and Settings\Acoustic Lion\Мои документы\чайк\да\04. Антон Чайковский - Моя прелесть.wav

Peak level 86.7 % Track quality 100.0 % Copy CRC 74888608 Copy OK

Track 5

Filename G:\Documents and Settings\Acoustic Lion\Мои документы\чайк\да\05. Антон Чайковский - Синяя песня (The Angel).wav

Peak level 97.3 % Track quality 100.0 % Copy CRC 51889352 Copy OK

Track 6

Filename G:\Documents and Settings\Acoustic Lion\Мои документы\чайк\да\06. Антон Чайковский - Сказка.wav

Peak level 86.6 % Track quality 100.0 % Copy CRC 8D1A2DD1 Copy OK

Track 7

Filename G:\Documents and Settings\Acoustic Lion\Мои документы\чайк\да\07. Антон Чайковский - Requiescat.wav

Peak level 77.2 % Track quality 100.0 % Copy CRC 2140B473 Copy OK

Track 8

Filename G:\Documents and Settings\Acoustic Lion\Мои документы\чайк\да\08. Антон Чайковский - Muse.wav

Peak level 97.2 % Track quality 100.0 % Copy CRC 775DDA9F Copy OK

Track 9

Filename G:\Documents and Settings\Acoustic Lion\Мои документы\чайк\да\09. Антон Чайковский - A Poison Tree.wav

Peak level 78.1 % Track quality 100.0 % Copy CRC 749E183C Copy OK

Track 10

Filename G:\Documents and Settings\Acoustic Lion\Мои документы\чайк\да\10. Антон Чайковский - MM.wav

Peak level 98.6 % Track quality 100.0 % Copy CRC 8E9BDA11 Copy OK

Track 11

Filename G:\Documents and Settings\Acoustic Lion\Мои документы\чайк\да\11. Антон Чайковский - Зима.wav

Peak level 86.3 % Track quality 100.0 % Copy CRC 9BD4B36B Copy OK

Track 12

Filename G:\Documents and Settings\Acoustic Lion\Мои документы\чайк\да\12. Антон Чайковский - The Winter Wind.wav

Peak level 86.4 % Track quality 100.0 % Copy CRC 75D991A7 Copy OK

Track 13

Filename G:\Documents and Settings\Acoustic Lion\Мои документы\чайк\да\13. Антон Чайковский - Sonnet №71.wav

Peak level 97.3 % Track quality 100.0 % Copy CRC 6D9E7926 Copy OK

No errors occurred

End of status report
Exact Audio Copy V0.99 prebeta 5 from 4. May 2009

EAC extraction logfile from 2. August 2010, 15:05

А. Чайковский / Времена года

Used drive : Optiarc DVD RW AD-7173A Adapter: 1 ID: 1

Read mode : SecureUtilize accurate stream : YesDefeat audio cache : NoMake use of C2 pointers : Yes

Combined read/write offset correction : 0Overread into Lead-In and Lead-Out : NoFill up missing offset samples with silence : YesDelete leading and trailing silent blocks : NoNull samples used in CRC calculations : YesUsed interface : Native Win32 interface for Win NT & 2000Gap handling : Not detected, thus appended to previous track

Used output format : LAME MP3 EncoderSelected bitrate : 320 kBit/sQuality : HighAdd ID3 tag : NoCommand line compressor : G:\Program Files\Exact Audio Copy\lame.exe

TOC of the extracted CD

Track | Start | Length | Start sector | End sector --------------------------------------------------------- 1 | 0:00.00 | 2:38.18 | 0 | 11867 2 | 2:38.18 | 4:29.65 | 11868 | 32107 3 | 7:08.08 | 4:34.13 | 32108 | 52670 4 | 11:42.21 | 3:46.25 | 52671 | 69645 5 | 15:28.46 | 4:32.54 | 69646 | 90099 6 | 20:01.25 | 6:53.51 | 90100 | 121125 7 | 26:55.01 | 3:56.02 | 121126 | 138827 8 | 30:51.03 | 4:53.56 | 138828 | 160858 9 | 35:44.59 | 4:18.41 | 160859 | 180249 10 | 40:03.25 | 5:03.48 | 180250 | 203022 11 | 45:06.73 | 5:38.12 | 203023 | 228384 12 | 50:45.10 | 3:30.11 | 228385 | 244145

Track 1

Filename G:\Documents and Settings\Acoustic Lion\Мои документы\чайк\Чайковский и Трубы Мира - 1998 - Времена года\01. А. Чайковский - Январь (Зима).wav

Peak level 97.0 % Track quality 100.0 % Copy CRC 45B33990 Copy OK

Track 2

Filename G:\Documents and Settings\Acoustic Lion\Мои документы\чайк\Чайковский и Трубы Мира - 1998 - Времена года\02. А. Чайковский - Февраль (Февраль).wav

Peak level 97.0 % Track quality 99.9 % Copy CRC 8F1A1E7A Copy OK

Track 3

Filename G:\Documents and Settings\Acoustic Lion\Мои документы\чайк\Чайковский и Трубы Мира - 1998 - Времена года\03. А. Чайковский - Март (Письмо).wav

Peak level 94.8 % Track quality 99.9 % Copy CRC 017909BA Copy OK

Track 4

Filename G:\Documents and Settings\Acoustic Lion\Мои документы\чайк\Чайковский и Трубы Мира - 1998 - Времена года\04. А. Чайковский - Апрель (Ты одна).wav

Peak level 97.0 % Track quality 99.9 % Copy CRC CA8BDDF1 Copy OK

Track 5

Filename G:\Documents and Settings\Acoustic Lion\Мои документы\чайк\Чайковский и Трубы Мира - 1998 - Времена года\05. А. Чайковский - Май (Май).wav

Peak level 96.7 % Track quality 100.0 % Copy CRC FA372A1C Copy OK

Track 6

Filename G:\Documents and Settings\Acoustic Lion\Мои документы\чайк\Чайковский и Трубы Мира - 1998 - Времена года\06. А. Чайковский - Июнь (Лето).wav

Peak level 99.2 % Track quality 100.0 % Copy CRC 56F42052 Copy OK

Track 7

Filename G:\Documents and Settings\Acoustic Lion\Мои документы\чайк\Чайковский и Трубы Мира - 1998 - Времена года\07. А. Чайковский - Июль (Заболею).wav

Peak level 95.8 % Track quality 100.0 % Copy CRC E21DFDEA Copy OK

Track 8

Filename G:\Documents and Settings\Acoustic Lion\Мои документы\чайк\Чайковский и Трубы Мира - 1998 - Времена года\08. А. Чайковский - Август (Наши шаги).wav

Peak level 92.6 % Track quality 99.9 % Copy CRC 96CC82E4 Copy OK

Track 9

Filename G:\Documents and Settings\Acoustic Lion\Мои документы\чайк\Чайковский и Трубы Мира - 1998 - Времена года\09. А. Чайковский - Сентябрь (Осень).wav

Peak level 97.0 % Track quality 100.0 % Copy CRC 280E54A4 Copy OK

Track 10

Filename G:\Documents and Settings\Acoustic Lion\Мои документы\чайк\Чайковский и Трубы Мира - 1998 - Времена года\10. А. Чайковский - Октябрь (Blow).wav

Peak level 97.7 % Track quality 99.9 % Copy CRC 16A3E961 Copy OK

Track 11

Filename G:\Documents and Settings\Acoustic Lion\Мои документы\чайк\Чайковский и Трубы Мира - 1998 - Времена года\11. А. Чайковский - Ноябрь (Не со мной).wav

Peak level 98.0 % Track quality 99.9 % Copy CRC 1136898D Copy OK

Track 12

Filename G:\Documents and Settings\Acoustic Lion\Мои документы\чайк\Чайковский и Трубы Мира - 1998 - Времена года\12. А. Чайковский - Декабрь (Мы).wav

Peak level 97.9 % Track quality 100.0 % Copy CRC 18924A1A Copy OK

No errors occurred

End of status report
Exact Audio Copy V0.99 prebeta 5 from 4. May 2009

EAC extraction logfile from 31. July 2010, 20:16

Чайковский и Трубы Мира / В чаще пейотля

Used drive : Optiarc DVD RW AD-7173A Adapter: 1 ID: 1

Read mode : SecureUtilize accurate stream : YesDefeat audio cache : NoMake use of C2 pointers : Yes

Combined read/write offset correction : 0Overread into Lead-In and Lead-Out : NoFill up missing offset samples with silence : YesDelete leading and trailing silent blocks : NoNull samples used in CRC calculations : YesUsed interface : Native Win32 interface for Win NT & 2000Gap handling : Appended to previous track

Used output format : LAME MP3 EncoderSelected bitrate : 320 kBit/sQuality : HighAdd ID3 tag : NoCommand line compressor : G:\Program Files\Exact Audio Copy\lame.exe

TOC of the extracted CD

Track | Start | Length | Start sector | End sector --------------------------------------------------------- 1 | 0:00.00 | 5:09.69 | 0 | 23243 2 | 5:09.69 | 3:38.66 | 23244 | 39659 3 | 8:48.60 | 4:12.34 | 39660 | 58593 4 | 13:01.19 | 3:11.08 | 58594 | 72926 5 | 16:12.27 | 4:49.07 | 72927 | 94608 6 | 21:01.34 | 3:42.00 | 94609 | 111258 7 | 24:43.34 | 2:52.64 | 111259 | 124222 8 | 27:36.23 | 3:39.52 | 124223 | 140699 9 | 31:16.00 | 3:47.51 | 140700 | 157775 10 | 35:03.51 | 4:18.07 | 157776 | 177132 11 | 39:21.58 | 5:42.20 | 177133 | 202802

Track 1

Filename G:\Documents and Settings\Acoustic Lion\Мои документы\чайк\в чаще\01. Чайковский и Трубы Мира - Саломея.wav

Pre-gap length 0:00:02.00

Peak level 99.9 % Track quality 100.0 % Copy CRC E5F113F5 Copy OK

Track 2

Filename G:\Documents and Settings\Acoustic Lion\Мои документы\чайк\в чаще\02. Чайковский и Трубы Мира - Листья пейотля.wav

Pre-gap length 0:00:02.00

Peak level 99.9 % Track quality 100.0 % Copy CRC 6330A198 Copy OK

Track 3

Filename G:\Documents and Settings\Acoustic Lion\Мои документы\чайк\в чаще\03. Чайковский и Трубы Мира - Кавалерия.wav

Pre-gap length 0:00:02.00

Peak level 99.9 % Track quality 99.9 % Copy CRC 036EDED2 Copy OK

Track 4

Filename G:\Documents and Settings\Acoustic Lion\Мои документы\чайк\в чаще\04. Чайковский и Трубы Мира - Самолюбие.wav

Pre-gap length 0:00:02.00

Peak level 99.9 % Track quality 100.0 % Copy CRC 97CABD16 Copy OK

Track 5

Filename G:\Documents and Settings\Acoustic Lion\Мои документы\чайк\в чаще\05. Чайковский и Трубы Мира - Лётчик.wav

Pre-gap length 0:00:02.00

Peak level 99.9 % Track quality 99.9 % Copy CRC F55C9541 Copy OK

Track 6

Filename G:\Documents and Settings\Acoustic Lion\Мои документы\чайк\в чаще\06. Чайковский и Трубы Мира - Стражи полночи.wav

Pre-gap length 0:00:02.00

Peak level 99.9 % Track quality 100.0 % Copy CRC 9E2D7F58 Copy OK

Track 7

Filename G:\Documents and Settings\Acoustic Lion\Мои документы\чайк\в чаще\07. Чайковский и Трубы Мира - Призрачный бес.wav

Pre-gap length 0:00:02.00

Peak level 99.9 % Track quality 100.0 % Copy CRC 88DFCA44 Copy OK

Track 8

Filename G:\Documents and Settings\Acoustic Lion\Мои документы\чайк\в чаще\08. Чайковский и Трубы Мира - Персноводые.wav

Pre-gap length 0:00:02.00

Peak level 99.9 % Track quality 100.0 % Copy CRC 965C66B2 Copy OK

Track 9

Filename G:\Documents and Settings\Acoustic Lion\Мои документы\чайк\в чаще\09. Чайковский и Трубы Мира - Волновая.wav

Pre-gap length 0:00:02.00

Peak level 99.9 % Track quality 100.0 % Copy CRC 54A95A01 Copy OK

Track 10

Filename G:\Documents and Settings\Acoustic Lion\Мои документы\чайк\в чаще\10. Чайковский и Трубы Мира - Лисица.wav

Pre-gap length 0:00:02.00

Peak level 99.9 % Track quality 100.0 % Copy CRC E883E178 Copy OK

Track 11

Filename G:\Documents and Settings\Acoustic Lion\Мои документы\чайк\в чаще\11. Чайковский и Трубы Мира - P.S. Кармический ветер.wav

Pre-gap length 0:00:02.00

Peak level 99.9 % Track quality 100.0 % Copy CRC 8E732D78 Copy OK

No errors occurred

End of status report
Exact Audio Copy V0.99 prebeta 5 from 4. May 2009

EAC extraction logfile from 2. August 2010, 13:04

Чайковский / Post for Punks

Used drive : Optiarc DVD RW AD-7173A Adapter: 1 ID: 1

Read mode : SecureUtilize accurate stream : YesDefeat audio cache : NoMake use of C2 pointers : Yes

Combined read/write offset correction : 0Overread into Lead-In and Lead-Out : NoFill up missing offset samples with silence : YesDelete leading and trailing silent blocks : NoNull samples used in CRC calculations : YesUsed interface : Native Win32 interface for Win NT & 2000Gap handling : Not detected, thus appended to previous track

Used output format : LAME MP3 EncoderSelected bitrate : 320 kBit/sQuality : HighAdd ID3 tag : NoCommand line compressor : G:\Program Files\Exact Audio Copy\lame.exe

TOC of the extracted CD

Track | Start | Length | Start sector | End sector --------------------------------------------------------- 1 | 0:00.00 | 2:15.61 | 0 | 10185 2 | 2:15.61 | 4:06.71 | 10186 | 28706 3 | 6:22.57 | 2:29.62 | 28707 | 39943 4 | 8:52.44 | 8:02.64 | 39944 | 76157 5 | 16:55.33 | 4:07.23 | 76158 | 94705 6 | 21:02.56 | 4:14.46 | 94706 | 113801 7 | 25:17.27 | 4:40.08 | 113802 | 134809 8 | 29:57.35 | 3:56.04 | 134810 | 152513 9 | 33:53.39 | 4:03.14 | 152514 | 170752 10 | 37:56.53 | 4:59.07 | 170753 | 193184

Track 1

Filename G:\Documents and Settings\Acoustic Lion\Мои документы\чайк\пост\01. Чайковский - 01 Стервенею 2 (клавиши).wav

Peak level 95.0 % Track quality 100.0 % Copy CRC A71292BE Copy OK

Track 2

Filename G:\Documents and Settings\Acoustic Lion\Мои документы\чайк\пост\02. Чайковский - 02 Весна (со Скитаем).wav

Peak level 92.9 % Track quality 100.0 % Copy CRC 95671767 Copy OK

Track 3

Filename G:\Documents and Settings\Acoustic Lion\Мои документы\чайк\пост\03. Чайковский - 03 Самолюбие.wav

Peak level 100.0 % Track quality 99.8 % Copy CRC CA3C6A2E Copy OK

Track 4

Filename G:\Documents and Settings\Acoustic Lion\Мои документы\чайк\пост\04. Чайковский - 04 Лето (с Шуйским).wav

Peak level 93.0 % Track quality 100.0 % Copy CRC F65CAF45 Copy OK

Track 5

Filename G:\Documents and Settings\Acoustic Lion\Мои документы\чайк\пост\05. Чайковский - 05 Письмо (со Скитаем).wav

Peak level 97.0 % Track quality 100.0 % Copy CRC B5D5BE6A Copy OK

Track 6

Filename G:\Documents and Settings\Acoustic Lion\Мои документы\чайк\пост\06. Чайковский - 06 Конура (Lennon концерт).wav

Peak level 97.0 % Track quality 100.0 % Copy CRC EACEA9C6 Copy OK

Track 7

Filename G:\Documents and Settings\Acoustic Lion\Мои документы\чайк\пост\07. Чайковский - 07 За део 2 (Дыкъ).wav

Peak level 97.0 % Track quality 100.0 % Copy CRC 9D4FC651 Copy OK

Track 8

Filename G:\Documents and Settings\Acoustic Lion\Мои документы\чайк\пост\08. Чайковский - 08 Забоею (с Шуйским).wav

Peak level 93.0 % Track quality 100.0 % Copy CRC 4562E453 Copy OK

Track 9

Filename G:\Documents and Settings\Acoustic Lion\Мои документы\чайк\пост\09. Чайковский - 09 Гангстерская (Юбилей).wav

Peak level 93.0 % Track quality 99.9 % Copy CRC 3891FEA8 Copy OK

Track 10

Filename G:\Documents and Settings\Acoustic Lion\Мои документы\чайк\пост\10. Чайковский - 10 Ожидало поле.wav

Peak level 93.0 % Track quality 100.0 % Copy CRC AB64C194 Copy OK

No errors occurred

End of status report
Exact Audio Copy V0.99 prebeta 5 from 4. May 2009

EAC extraction logfile from 2. August 2010, 12:37

Чайковский и Трубы Мира / Попутчик

Used drive : Optiarc DVD RW AD-7173A Adapter: 1 ID: 1

Read mode : SecureUtilize accurate stream : YesDefeat audio cache : NoMake use of C2 pointers : Yes

Combined read/write offset correction : 0Overread into Lead-In and Lead-Out : NoFill up missing offset samples with silence : YesDelete leading and trailing silent blocks : NoNull samples used in CRC calculations : YesUsed interface : Native Win32 interface for Win NT & 2000Gap handling : Appended to previous track

Used output format : LAME MP3 EncoderSelected bitrate : 320 kBit/sQuality : HighAdd ID3 tag : NoCommand line compressor : G:\Program Files\Exact Audio Copy\lame.exe

TOC of the extracted CD

Track | Start | Length | Start sector | End sector --------------------------------------------------------- 1 | 0:00.00 | 3:39.15 | 0 | 16439 2 | 3:39.15 | 3:08.42 | 16440 | 30581 3 | 6:47.57 | 3:23.48 | 30582 | 45854 4 | 10:11.30 | 5:01.65 | 45855 | 68494 5 | 15:13.20 | 4:29.17 | 68495 | 88686 6 | 19:42.37 | 4:05.57 | 88687 | 107118 7 | 23:48.19 | 5:11.01 | 107119 | 130444 8 | 28:59.20 | 3:31.51 | 130445 | 146320 9 | 32:30.71 | 5:37.21 | 146321 | 171616 10 | 38:08.17 | 3:27.29 | 171617 | 187170 11 | 41:35.46 | 3:55.46 | 187171 | 204841 12 | 45:31.17 | 4:10.11 | 204842 | 223602 13 | 49:41.28 | 4:12.25 | 223603 | 242527 14 | 53:53.53 | 5:15.19 | 242528 | 266171 15 | 59:08.72 | 3:42.45 | 266172 | 282866

Track 1

Filename G:\Documents and Settings\Acoustic Lion\Мои документы\чайк\поп\01. Чайковский и Трубы Мира - Попутчик.wav

Pre-gap length 0:00:02.00

Peak level 97.3 % Track quality 100.0 % Copy CRC C25A3F56 Copy OK

Track 2

Filename G:\Documents and Settings\Acoustic Lion\Мои документы\чайк\поп\02. Чайковский и Трубы Мира - James Brown (За-дело) (remake 2006).wav

Pre-gap length 0:00:02.00

Peak level 97.7 % Track quality 100.0 % Copy CRC FE4D9006 Copy OK

Track 3

Filename G:\Documents and Settings\Acoustic Lion\Мои документы\чайк\поп\03. Чайковский и Трубы Мира - Северный край.wav

Pre-gap length 0:00:02.00

Peak level 92.8 % Track quality 100.0 % Copy CRC EA3EFE22 Copy OK

Track 4

Filename G:\Documents and Settings\Acoustic Lion\Мои документы\чайк\поп\04. Чайковский и Трубы Мира - Печаль.wav

Pre-gap length 0:00:02.00

Peak level 97.5 % Track quality 100.0 % Copy CRC 0C6C4BB9 Copy OK

Track 5

Filename G:\Documents and Settings\Acoustic Lion\Мои документы\чайк\поп\05. Чайковский и Трубы Мира - Ты меня понял.wav

Pre-gap length 0:00:02.00

Peak level 96.6 % Track quality 100.0 % Copy CRC 147188B5 Copy OK

Track 6

Filename G:\Documents and Settings\Acoustic Lion\Мои документы\чайк\поп\06. Чайковский и Трубы Мира - Пурга.wav

Pre-gap length 0:00:02.00

Peak level 97.3 % Track quality 99.9 % Copy CRC EDCA5BBD Copy OK

Track 7

Filename G:\Documents and Settings\Acoustic Lion\Мои документы\чайк\поп\07. Чайковский и Трубы Мира - В режиме сна (remake 2006).wav

Pre-gap length 0:00:02.00

Peak level 97.6 % Track quality 100.0 % Copy CRC AF6A9C22 Copy OK

Track 8

Filename G:\Documents and Settings\Acoustic Lion\Мои документы\чайк\поп\08. Чайковский и Трубы Мира - Хоба-хоба.wav

Pre-gap length 0:00:02.00

Peak level 97.7 % Track quality 100.0 % Copy CRC 762919D1 Copy OK

Track 9

Filename G:\Documents and Settings\Acoustic Lion\Мои документы\чайк\поп\09. Чайковский и Трубы Мира - Мужики.wav

Pre-gap length 0:00:02.00

Peak level 97.4 % Track quality 100.0 % Copy CRC E356A925 Copy OK

Track 10

Filename G:\Documents and Settings\Acoustic Lion\Мои документы\чайк\поп\10. Чайковский и Трубы Мира - Таксомотор.wav

Pre-gap length 0:00:02.00

Peak level 97.7 % Track quality 100.0 % Copy CRC E5A555DF Copy OK

Track 11

Filename G:\Documents and Settings\Acoustic Lion\Мои документы\чайк\поп\11. Чайковский и Трубы Мира - Бомжовый рок-н-ролл.wav

Pre-gap length 0:00:02.00

Peak level 97.7 % Track quality 100.0 % Copy CRC F659A4C5 Copy OK

Track 12

Filename G:\Documents and Settings\Acoustic Lion\Мои документы\чайк\поп\12. Чайковский и Трубы Мира - Экспресс (remake 2006).wav

Pre-gap length 0:00:02.00

Peak level 97.4 % Track quality 100.0 % Copy CRC 65C32934 Copy OK

Track 13

Filename G:\Documents and Settings\Acoustic Lion\Мои документы\чайк\поп\13. Чайковский и Трубы Мира - За-дело (original version 2000).wav

Pre-gap length 0:00:06.00

Peak level 98.8 % Track quality 100.0 % Copy CRC 87DEF0DB Copy OK

Track 14

Filename G:\Documents and Settings\Acoustic Lion\Мои документы\чайк\поп\14. Чайковский и Трубы Мира - Конура (original version 200).wav

Pre-gap length 0:00:02.00

Peak level 98.8 % Track quality 100.0 % Copy CRC 96C7C774 Copy OK

Track 15

Filename G:\Documents and Settings\Acoustic Lion\Мои документы\чайк\поп\15. Чайковский и Трубы Мира - Здоровье.wav

Pre-gap length 0:00:10.00

Peak level 97.6 % Track quality 100.0 % Copy CRC E2AB667A Copy OK

No errors occurred

End of status report
Exact Audio Copy V0.99 prebeta 5 from 4. May 2009

EAC extraction logfile from 2. August 2010, 15:39

Чайковский и Трубы Мира / Танцы народов

Used drive : Optiarc DVD RW AD-7173A Adapter: 1 ID: 1

Read mode : SecureUtilize accurate stream : YesDefeat audio cache : NoMake use of C2 pointers : Yes

Combined read/write offset correction : 0Overread into Lead-In and Lead-Out : NoFill up missing offset samples with silence : YesDelete leading and trailing silent blocks : NoNull samples used in CRC calculations : YesUsed interface : Native Win32 interface for Win NT & 2000Gap handling : Not detected, thus appended to previous track

Used output format : LAME MP3 EncoderSelected bitrate : 320 kBit/sQuality : HighAdd ID3 tag : NoCommand line compressor : G:\Program Files\Exact Audio Copy\lame.exe

TOC of the extracted CD

Track | Start | Length | Start sector | End sector --------------------------------------------------------- 1 | 0:00.00 | 3:29.20 | 0 | 15694 2 | 3:29.20 | 2:10.05 | 15695 | 25449 3 | 5:39.25 | 3:38.06 | 25450 | 41805 4 | 9:17.31 | 4:17.37 | 41806 | 61117 5 | 13:34.68 | 3:45.37 | 61118 | 78029 6 | 17:20.30 | 3:47.73 | 78030 | 95127 7 | 21:08.28 | 2:52.52 | 95128 | 108079 8 | 24:01.05 | 3:53.37 | 108080 | 125591 9 | 27:54.42 | 4:10.08 | 125592 | 144349 10 | 32:04.50 | 3:19.54 | 144350 | 159328 11 | 35:24.29 | 4:04.32 | 159329 | 177660 12 | 39:28.61 | 5:59.74 | 177661 | 204659 13 | 45:28.60 | 3:04.73 | 204660 | 218532 14 | 48:33.58 | 4:46.60 | 218533 | 240042 15 | 53:20.43 | 2:48.64 | 240043 | 252706 16 | 56:09.32 | 3:25.38 | 252707 | 268119 17 | 59:34.70 | 5:11.46 | 268120 | 291490 18 | 64:46.41 | 3:42.43 | 291491 | 308183 19 | 68:29.09 | 3:51.48 | 308184 | 325556

Track 1

Filename G:\Documents and Settings\Acoustic Lion\Мои документы\чайк\Чайковский и Трубы Мира - 2010 - Танцы народов\01. Чайковский и Трубы Мира - Нагваль.wav

Peak level 100.0 % Track quality 100.0 % Copy CRC 4D23362D Copy OK

Track 2

Filename G:\Documents and Settings\Acoustic Lion\Мои документы\чайк\Чайковский и Трубы Мира - 2010 - Танцы народов\02. Чайковский и Трубы Мира - Мария.wav

Peak level 100.0 % Track quality 99.8 % Copy CRC 2DD3040D Copy OK

Track 3

Filename G:\Documents and Settings\Acoustic Lion\Мои документы\чайк\Чайковский и Трубы Мира - 2010 - Танцы народов\03. Чайковский и Трубы Мира - Английская.wav

Peak level 100.0 % Track quality 100.0 % Copy CRC 793C7ABB Copy OK

Track 4

Filename G:\Documents and Settings\Acoustic Lion\Мои документы\чайк\Чайковский и Трубы Мира - 2010 - Танцы народов\04. Чайковский и Трубы Мира - Гондурас.wav

Peak level 98.8 % Track quality 100.0 % Copy CRC 07017268 Copy OK

Track 5

Filename G:\Documents and Settings\Acoustic Lion\Мои документы\чайк\Чайковский и Трубы Мира - 2010 - Танцы народов\05. Чайковский и Трубы Мира - Испанская.wav

Peak level 100.0 % Track quality 100.0 % Copy CRC A413069D Copy OK

Track 6

Filename G:\Documents and Settings\Acoustic Lion\Мои документы\чайк\Чайковский и Трубы Мира - 2010 - Танцы народов\06. Чайковский и Трубы Мира - Французская.wav

Peak level 98.3 % Track quality 100.0 % Copy CRC 8A077D7B Copy OK

Track 7

Filename G:\Documents and Settings\Acoustic Lion\Мои документы\чайк\Чайковский и Трубы Мира - 2010 - Танцы народов\07. Чайковский и Трубы Мира - Утренний скорый.wav

Peak level 96.8 % Track quality 100.0 % Copy CRC 7FAEB700 Copy OK

Track 8

Filename G:\Documents and Settings\Acoustic Lion\Мои документы\чайк\Чайковский и Трубы Мира - 2010 - Танцы народов\08. Чайковский и Трубы Мира - Тифлис.wav

Peak level 97.6 % Track quality 100.0 % Copy CRC BC62B10D Copy OK

Track 9

Filename G:\Documents and Settings\Acoustic Lion\Мои документы\чайк\Чайковский и Трубы Мира - 2010 - Танцы народов\09. Чайковский и Трубы Мира - Автобус.wav

Peak level 98.0 % Track quality 100.0 % Copy CRC CCBC3176 Copy OK

Track 10

Filename G:\Documents and Settings\Acoustic Lion\Мои документы\чайк\Чайковский и Трубы Мира - 2010 - Танцы народов\10. Чайковский и Трубы Мира - Луна.wav

Peak level 97.7 % Track quality 100.0 % Copy CRC CF459CB5 Copy OK

Track 11

Filename G:\Documents and Settings\Acoustic Lion\Мои документы\чайк\Чайковский и Трубы Мира - 2010 - Танцы народов\11. Чайковский и Трубы Мира - Золотые поля.wav

Peak level 97.3 % Track quality 100.0 % Copy CRC DC1B10D5 Copy OK

Track 12

Filename G:\Documents and Settings\Acoustic Lion\Мои документы\чайк\Чайковский и Трубы Мира - 2010 - Танцы народов\12. Чайковский и Трубы Мира - Зори.wav

Peak level 100.0 % Track quality 100.0 % Copy CRC E9789A76 Copy OK

Track 13

Filename G:\Documents and Settings\Acoustic Lion\Мои документы\чайк\Чайковский и Трубы Мира - 2010 - Танцы народов\13. Чайковский и Трубы Мира - Русская.wav

Peak level 97.1 % Track quality 100.0 % Copy CRC 3423BF6A Copy OK

Track 14

Filename G:\Documents and Settings\Acoustic Lion\Мои документы\чайк\Чайковский и Трубы Мира - 2010 - Танцы народов\14. Чайковский и Трубы Мира - Текила.wav

Peak level 100.0 % Track quality 100.0 % Copy CRC D926BE7B Copy OK

Track 15

Filename G:\Documents and Settings\Acoustic Lion\Мои документы\чайк\Чайковский и Трубы Мира - 2010 - Танцы народов\15. Чайковский и Трубы Мира - Ковбойская.wav

Peak level 98.3 % Track quality 100.0 % Copy CRC 3B4BE959 Copy OK

Track 16

Filename G:\Documents and Settings\Acoustic Lion\Мои документы\чайк\Чайковский и Трубы Мира - 2010 - Танцы народов\16. Чайковский и Трубы Мира - Самолёт.wav

Peak level 100.0 % Track quality 100.0 % Copy CRC 9B1BF540 Copy OK

Track 17

Filename G:\Documents and Settings\Acoustic Lion\Мои документы\чайк\Чайковский и Трубы Мира - 2010 - Танцы народов\17. Чайковский и Трубы Мира - Слишком поздно.wav

Peak level 97.8 % Track quality 100.0 % Copy CRC 16026778 Copy OK

Track 18

Filename G:\Documents and Settings\Acoustic Lion\Мои документы\чайк\Чайковский и Трубы Мира - 2010 - Танцы народов\18. Чайковский и Трубы Мира - Сан-Франциско.wav

Peak level 99.4 % Track quality 100.0 % Copy CRC 24E7F348 Copy OK

Track 19

Filename G:\Documents and Settings\Acoustic Lion\Мои документы\чайк\Чайковский и Трубы Мира - 2010 - Танцы народов\19. Чайковский и Трубы Мира - Компаньеро.wav

Peak level 97.7 % Track quality 100.0 % Copy CRC 0EED7E29 Copy OK

No errors occurred

End of status report
Exact Audio Copy V1.0 beta 3 from 29. August 2011

Отчёт EAC об извлечении, выполненном 2. декабря 2014, 17:06

Чайковский и Трубы Мира / Тяжелые будни

Дисковод: SlimtypeDVD A DS8A8SH Adapter: 0 ID: 1

Режим чтения : Скоростной

Коррекция смещения при чтении : 0Способность читать области Lead-in и Lead-out : НетЗаполнение пропущенных сэмплов тишиной : ДаУдаление блоков с тишиной в начале и конце : НетПри вычислениях CRC использовались нулевые сэмплы : ДаИнтерфейс : Встроенный Win32-интерфейс для Win NT/2000

Выходной формат : Внутренние WAV-операцииФормат сэмплов : 44.100 Гц; 16 бит; стерео

TOC извлечённого CD

Трек | Старт | Длительность | Начальный сектор | Конечный сектор --------------------------------------------------------------------- 1 | 0:00.00 | 2:58.48 | 0 | 13397 2 | 2:58.48 | 3:54.53 | 13398 | 31000 3 | 6:53.26 | 3:14.04 | 31001 | 45554 4 | 10:07.30 | 4:27.40 | 45555 | 65619 5 | 14:34.70 | 3:11.54 | 65620 | 79998 6 | 17:46.49 | 4:19.52 | 79999 | 99475 7 | 22:06.26 | 3:14.66 | 99476 | 114091 8 | 25:21.17 | 2:14.48 | 114092 | 124189 9 | 27:35.65 | 3:25.01 | 124190 | 139565 10 | 31:00.66 | 2:26.70 | 139566 | 150585 11 | 33:27.61 | 3:01.13 | 150586 | 164173 12 | 36:28.74 | 2:39.57 | 164174 | 176155 13 | 39:08.56 | 2:54.25 | 176156 | 189230 14 | 42:03.06 | 2:06.70 | 189231 | 198750 15 | 44:10.01 | 4:37.36 | 198751 | 219561 16 | 48:47.37 | 3:25.44 | 219562 | 234980 17 | 52:13.06 | 2:36.48 | 234981 | 246728 18 | 54:49.54 | 2:57.02 | 246729 | 260005

Характеристики диапазона извлечения и сообщения об ошибках

Выбранный диапазон

Имя файла C:\Users\Acoustic Lion\Documents\Чайковский и Трубы Мира - Тяжелые будни.wav

Пиковый уровень 100.0 % Скорость извлечения 9.8 X CRC теста 134413E2 CRC копии 134413E2 Копирование... OK

Ошибок не произошло

Конец отчёта
Exact Audio Copy V0.99 prebeta 5 from 4. May 2009

Отчёт EAC об извлечении, выполненном 30. мая 2018, 17:22

Pak Chai / La Battaglia delle Idee

Дисковод: DiscSoftVirtual Adapter: 2 ID: 0

Режим чтения : Скоростной

Коррекция смещения при чтении : 0Способность читать области Lead-in и Lead-out : НетЗаполнение пропущенных сэмплов тишиной : ДаУдаление блоков с тишиной в начале и конце : НетПри вычислениях CRC использовались нулевые сэмплы : НетИнтерфейс : Встроенный Win32-интерфейс для Win NT/2000Обработка зазоров : Не обнаружено, добавлено к предыдущему треку

Выходной формат : Внутренние WAV-операцииФормат сэмплов : 44.100 Гц; 16 бит; стерео

TOC извлечённого CD

Трек | Старт | Длительность | Начальный сектор | Конечный сектор --------------------------------------------------------------------- 1 | 0:00.00 | 4:03.43 | 0 | 18267 2 | 4:03.43 | 3:56.36 | 18268 | 36003 3 | 8:00.04 | 3:47.43 | 36004 | 53071 4 | 11:47.47 | 1:37.43 | 53072 | 60389 5 | 13:25.15 | 3:38.06 | 60390 | 76745 6 | 17:03.21 | 3:31.57 | 76746 | 92627 7 | 20:35.03 | 2:40.41 | 92628 | 104668 8 | 23:15.44 | 3:14.06 | 104669 | 119224

Трек 1

Имя файла C:\Users\Acoustic Lion\Documents\Запоздавшие рассветы.wav

Пиковый уровень 100.0 % CRC копии 66A64617 Копирование... OK

Трек 2

Имя файла C:\Users\Acoustic Lion\Documents\Здравствуй!.wav

Пиковый уровень 100.0 % CRC копии 7C16A7AF Копирование... OK

Трек 3

Имя файла C:\Users\Acoustic Lion\Documents\Перламутровая вьюга.wav

Пиковый уровень 100.0 % CRC копии 7A193560 Копирование... OK

Трек 4

Имя файла C:\Users\Acoustic Lion\Documents\Сонет №319.wav

Пиковый уровень 100.0 % CRC копии 78B3AE79 Копирование... OK

Трек 5

Имя файла C:\Users\Acoustic Lion\Documents\Побег.wav

Пиковый уровень 100.0 % CRC копии EC94C7FD Копирование... OK

Трек 6

Имя файла C:\Users\Acoustic Lion\Documents\Зима.wav

Пиковый уровень 100.0 % CRC копии FBC44138 Копирование... OK

Трек 7

Имя файла C:\Users\Acoustic Lion\Documents\Дорога.wav

Пиковый уровень 100.0 % CRC копии 7F82A5B7 Копирование... OK

Трек 8

Имя файла C:\Users\Acoustic Lion\Documents\Революция.wav

Пиковый уровень 100.0 % CRC копии 352CD76C Копирование... OK

Ошибок не произошло

Конец отчёта
Exact Audio Copy V1.0 beta 3 from 29. August 2011

Отчёт EAC об извлечении, выполненном 29. марта 2015, 13:55

Чайковский и Трубы Мира / Бунгало Блюз

Дисковод: SlimtypeDVD A DS8A8SH Adapter: 0 ID: 1

Режим чтения : Скоростной

Коррекция смещения при чтении : 0Способность читать области Lead-in и Lead-out : НетЗаполнение пропущенных сэмплов тишиной : ДаУдаление блоков с тишиной в начале и конце : НетПри вычислениях CRC использовались нулевые сэмплы : ДаИнтерфейс : Встроенный Win32-интерфейс для Win NT/2000Обработка зазоров : Не обнаружено, добавлено к предыдущему треку

Выходной формат : Внутренние WAV-операцииФормат сэмплов : 44.100 Гц; 16 бит; стерео

TOC извлечённого CD

Трек | Старт | Длительность | Начальный сектор | Конечный сектор --------------------------------------------------------------------- 1 | 0:00.00 | 3:23.18 | 0 | 15242 2 | 3:23.18 | 2:41.15 | 15243 | 27332 3 | 6:04.33 | 4:51.23 | 27333 | 49180 4 | 10:55.56 | 4:57.52 | 49181 | 71507 5 | 15:53.33 | 2:27.72 | 71508 | 82604 6 | 18:21.30 | 4:40.02 | 82605 | 103606 7 | 23:01.32 | 3:13.43 | 103607 | 118124 8 | 26:15.00 | 5:02.00 | 118125 | 140774 9 | 31:17.00 | 3:02.14 | 140775 | 154438 10 | 34:19.14 | 4:08.09 | 154439 | 173047 11 | 38:27.23 | 2:39.17 | 173048 | 184989 12 | 41:06.40 | 4:20.69 | 184990 | 204558 13 | 45:27.34 | 3:19.43 | 204559 | 219526 14 | 48:47.02 | 5:19.68 | 219527 | 243519

Трек 1

Имя файла D:\Users\01 Дорога домой.wav

Пиковый уровень 96.6 % Скорость извлечения 7.1 X CRC копии 03FAF365 Копирование... OK

Трек 2

Имя файла D:\Users\02 Блюз весеннего запоя.wav

Пиковый уровень 96.6 % Скорость извлечения 7.8 X CRC копии 494DC262 Копирование... OK

Трек 3

Имя файла D:\Users\03 Вселенское танго.wav

Пиковый уровень 96.6 % Скорость извлечения 8.4 X CRC копии DE2C13B8 Копирование... OK

Трек 4

Имя файла D:\Users\04 Говори.wav

Пиковый уровень 96.6 % Скорость извлечения 9.2 X CRC копии 443128AC Копирование... OK

Трек 5

Имя файла D:\Users\05 35-й дом.wav

Пиковый уровень 96.6 % Скорость извлечения 9.7 X CRC копии E9A8F841 Копирование... OK

Трек 6

Имя файла D:\Users\06 Ангел.wav

Пиковый уровень 96.6 % Скорость извлечения 10.2 X CRC копии 11562515 Копирование... OK

Трек 7

Имя файла D:\Users\07 Вороново крыло.wav

Пиковый уровень 96.6 % Скорость извлечения 10.7 X CRC копии 47AC35F3 Копирование... OK

Трек 8

Имя файла D:\Users\08 Вино.wav

Пиковый уровень 96.6 % Скорость извлечения 11.2 X CRC копии D296A72C Копирование... OK

Трек 9

Имя файла D:\Users\09 Смерть капитализму.wav

Пиковый уровень 96.6 % Скорость извлечения 11.7 X CRC копии 41AB3274 Копирование... OK

Трек 10

Имя файла D:\Users\10 Мастер-блюз.wav

Пиковый уровень 96.6 % Скорость извлечения 12.1 X CRC копии 3321E15B Копирование... OK

Трек 11

Имя файла D:\Users\11 Кит.wav

Пиковый уровень 96.6 % Скорость извлечения 12.5 X CRC копии 6EED260F Копирование... OK

Трек 12

Имя файла D:\Users\12 Мама-блюз.wav

Пиковый уровень 96.6 % Скорость извлечения 12.8 X CRC копии F0E92BC7 Копирование... OK

Трек 13

Имя файла D:\Users\13 Топорейшн блюз.wav

Пиковый уровень 96.6 % Скорость извлечения 13.2 X CRC копии 036FCA7B Копирование... OK

Трек 14

Имя файла D:\Users\14 Друзьяи.wav

Пиковый уровень 96.6 % Скорость извлечения 13.7 X CRC копии 4F91EC57 Копирование... OK

Ошибок не произошло

Конец отчёта
Exact Audio Copy V0.99 prebeta 5 from 4. May 2009

Отчёт EAC об извлечении, выполненном 30. мая 2018, 17:25

Антон Чайковский / Испанская осень

Дисковод: DiscSoftVirtual Adapter: 2 ID: 1

Режим чтения : Скоростной

Коррекция смещения при чтении : 0Способность читать области Lead-in и Lead-out : НетЗаполнение пропущенных сэмплов тишиной : ДаУдаление блоков с тишиной в начале и конце : НетПри вычислениях CRC использовались нулевые сэмплы : НетИнтерфейс : Встроенный Win32-интерфейс для Win NT/2000Обработка зазоров : Не обнаружено, добавлено к предыдущему треку

Выходной формат : Внутренние WAV-операцииФормат сэмплов : 44.100 Гц; 16 бит; стерео

TOC извлечённого CD

Трек | Старт | Длительность | Начальный сектор | Конечный сектор --------------------------------------------------------------------- 1 | 0:00.00 | 2:50.20 | 0 | 12769 2 | 2:50.20 | 2:09.42 | 12770 | 22486 3 | 4:59.62 | 2:11.66 | 22487 | 32377 4 | 7:11.53 | 2:50.64 | 32378 | 45191 5 | 10:02.42 | 3:59.37 | 45192 | 63153 6 | 14:02.04 | 2:17.43 | 63154 | 73471 7 | 16:19.47 | 2:15.02 | 73472 | 83598 8 | 18:34.49 | 1:38.69 | 83599 | 91017

Трек 1

Имя файла C:\Users\Acoustic Lion\Documents\Нам с тобой.wav

Пиковый уровень 96.6 % CRC копии 044F76F3 Копирование... OK

Трек 2

Имя файла C:\Users\Acoustic Lion\Documents\Дозорные.wav

Пиковый уровень 96.6 % CRC копии B96F3685 Копирование... OK

Трек 3

Имя файла C:\Users\Acoustic Lion\Documents\Голос моря.wav

Пиковый уровень 96.6 % CRC копии 4E663C5B Копирование... OK

Трек 4

Имя файла C:\Users\Acoustic Lion\Documents\Аве.wav

Пиковый уровень 96.6 % CRC копии 46E2B530 Копирование... OK

Трек 5

Имя файла C:\Users\Acoustic Lion\Documents\След ночной воды.wav

Пиковый уровень 96.6 % CRC копии 2733385C Копирование... OK

Трек 6

Имя файла C:\Users\Acoustic Lion\Documents\Всадники апокалипсиса.wav

Пиковый уровень 96.6 % CRC копии 605DB492 Копирование... OK

Трек 7

Имя файла C:\Users\Acoustic Lion\Documents\Испанская осень.wav

Пиковый уровень 96.6 % CRC копии C6D3C1E6 Копирование... OK

Трек 8

Имя файла C:\Users\Acoustic Lion\Documents\Без тебя.wav

Пиковый уровень 96.6 % CRC копии 026E3000 Копирование... OK

Ошибок не произошло

Конец отчёта
Exact Audio Copy V0.99 prebeta 5 from 4. May 2009

Отчёт EAC об извлечении, выполненном 30. мая 2018, 17:29

Чайковский и Трубы мира / Сказки Венского леса

Дисковод: DiscSoftVirtual Adapter: 2 ID: 2

Режим чтения : Скоростной

Коррекция смещения при чтении : 0Способность читать области Lead-in и Lead-out : НетЗаполнение пропущенных сэмплов тишиной : ДаУдаление блоков с тишиной в начале и конце : НетПри вычислениях CRC использовались нулевые сэмплы : НетИнтерфейс : Встроенный Win32-интерфейс для Win NT/2000Обработка зазоров : Не обнаружено, добавлено к предыдущему треку

Выходной формат : Внутренние WAV-операцииФормат сэмплов : 44.100 Гц; 16 бит; стерео

TOC извлечённого CD

Трек | Старт | Длительность | Начальный сектор | Конечный сектор --------------------------------------------------------------------- 1 | 0:00.00 | 3:11.17 | 0 | 14341 2 | 3:11.17 | 2:47.08 | 14342 | 26874 3 | 5:58.25 | 3:52.68 | 26875 | 44342 4 | 9:51.18 | 3:36.11 | 44343 | 60553 5 | 13:27.29 | 3:10.69 | 60554 | 74872 6 | 16:38.23 | 2:30.03 | 74873 | 86125 7 | 19:08.26 | 5:41.29 | 86126 | 111729 8 | 24:49.55 | 3:04.02 | 111730 | 125531 9 | 27:53.57 | 3:56.64 | 125532 | 143295 10 | 31:50.46 | 4:00.43 | 143296 | 161338 11 | 35:51.14 | 3:15.14 | 161339 | 175977 12 | 39:06.28 | 4:39.03 | 175978 | 196905 13 | 43:45.31 | 4:13.42 | 196906 | 215922 14 | 47:58.73 | 3:42.42 | 215923 | 232614 15 | 51:41.40 | 4:37.09 | 232615 | 253398

Трек 1

Имя файла C:\Users\Acoustic Lion\Documents\Индеец.wav

Пиковый уровень 100.0 % CRC копии 2B2FBD94 Копирование... OK

Трек 2

Имя файла C:\Users\Acoustic Lion\Documents\Психофизики.wav

Пиковый уровень 100.0 % CRC копии F62CBA5F Копирование... OK

Трек 3

Имя файла C:\Users\Acoustic Lion\Documents\Роман о заболевших кошках.wav

Пиковый уровень 100.0 % CRC копии 6AAEA512 Копирование... OK

Трек 4

Имя файла C:\Users\Acoustic Lion\Documents\Сказки Венского леса.wav

Пиковый уровень 100.0 % CRC копии EA62BF93 Копирование... OK

Трек 5

Имя файла C:\Users\Acoustic Lion\Documents\Башмаки.wav

Пиковый уровень 100.0 % CRC копии CCB4BDC6 Копирование... OK

Трек 6

Имя файла C:\Users\Acoustic Lion\Documents\Не спи, зима.wav

Пиковый уровень 100.0 % CRC копии 7814C2D6 Копирование... OK

Трек 7

Имя файла C:\Users\Acoustic Lion\Documents\Человек по имени Боро.wav

Пиковый уровень 100.0 % CRC копии 9AF61F57 Копирование... OK

Трек 8

Имя файла C:\Users\Acoustic Lion\Documents\Райский сад.wav

Пиковый уровень 100.0 % CRC копии 6CC9BED8 Копирование... OK

Трек 9

Имя файла C:\Users\Acoustic Lion\Documents\Мужик с топором.wav

Пиковый уровень 100.0 % CRC копии 055D5F21 Копирование... OK

Трек 10

Имя файла C:\Users\Acoustic Lion\Documents\Последние мечты.wav

Пиковый уровень 100.0 % CRC копии 5D262DEA Копирование... OK

Трек 11

Имя файла C:\Users\Acoustic Lion\Documents\Пароход.wav

Пиковый уровень 100.0 % CRC копии 3C4083E4 Копирование... OK

Трек 12

Имя файла C:\Users\Acoustic Lion\Documents\Болья моя.wav

Пиковый уровень 100.0 % CRC копии 49E10DDF Копирование... OK

Трек 13

Имя файла C:\Users\Acoustic Lion\Documents\Иркутская богема.wav

Пиковый уровень 100.0 % CRC копии A3955A51 Копирование... OK

Трек 14

Имя файла C:\Users\Acoustic Lion\Documents\Тонкое тело.wav

Пиковый уровень 100.0 % CRC копии 5DA29972 Копирование... OK

Трек 15

Имя файла C:\Users\Acoustic Lion\Documents\Паяц.wav

Пиковый уровень 100.0 % CRC копии F675AB84 Копирование... OK

Ошибок не произошло

Конец отчёта
</div>
</div>
Музыка коллектива представляет собой сложную смесь народной музыки Латинской америки, Ямайки, традиционного европейского фолка и романтического шансона, ритм-энд-блюза, классического рокнролла и хард-рока. На протяжении творческого пути количество компонентов "музыкального коктейля" только увеличивается, что позволяет причислить группу к "эклектик-року". Легкая, близкая к наивному панку, подача этой взрывоопасной смеси не оставит равнодушным ни одного слушателя.
Антон Чайковский - гитара, вокал, тексты;
Виктор Чубаров - бас-гитара;
Александр Максимов - барабаны;


Трекер:  [ 11-Июл-2018 19:30 ]

  

Скачать .torrent

Размер .torrent файла 32 KB


Размер: 1.28 GB
Хэш (hash) релиза: 856d415bddf3d595aeed5047ab7b94358cf795db

Еще никто не оставлял запись к записи скачать торрент Чайковский и Трубы Мира - Дискография 1997-2018 - 11 альбомов, MP3, 320 kbps . Будь первым!

!Обратная связь