thumbnails | Watch movie | Six Feet Under (5)

Скачать через торрент Настоящие О’Нилы The Real ONeals Фильм бесплатно в хорошем качестве torrent

Скачивайте на UnionPeer.org фильмы через торрент без регистрации. Новинки кино в хорошем качестве через торрент. На UnionPeer.org можно скачать через торрент фильмы 2014 и 2015 годов. Самые новые фильмы.

Скачать торрент Настоящие О’Нилы The Real ONeals бесплатно через .torrent фильм мультфильм сериал

Статистика раздачи
Размер:  35.06 GB   |    Зарегистрирован:  2 месяца 10 дней   |    .torrent скачан:  31 раз   |   
Раздают:  1  
   
загрузка...
 
Автор Сообщение

Galfimbul

avatar Galfimbul


Настоящие О’Нилы / The Real O'Neals

Год выпуска: 2016
Страна: США
Жанр: Комедия
Продолжительность: x ~ 00:22:00

Перевод: Профессиональный (многоголосый закадровый)

Режиссёр: Тодд Холлэнд, Ребекка Эшер, Эял Гордин
В ролях: Марта Плимптон, Джей Р. Фергюсон, Ной Галвин, Мэтт Шайвли, Бебе Вуд, Мэри Холлис Инбоден, Джереми Лосон, Ханна Маркс, Сарайю Рао, Кайли Канеширо

Описание: Американский телевизионный комедийный сериал, который вышел на ABC в сезоне 2015—2016 годов. В центре сюжета находится Чикагская семья у каждого члена которой, как нередко бывает, есть свой секрет, родители мечтают о разводе, старший сын-спортсмен страдает анорексией, дочь ворует в церкви, а младший сын является геем.



Качество: WEBRip 1080p
Формат: MKV
Видео: MPEG-4 AVC, 1920x1080 [16:9], 25.000 fps, ~ 13300 Kbps
Аудио 1: [Русский] AC3, 48 kHz, 2 ch, 192 Kbps - Amedia
Аудио 2: [Английский] AC3, 48 kHz, 6 ch, 640 Kbps
Субтитры: Английские (SDH)

1 сезон
2 сезон
Релиз CasStudio - BenderBEST
ОбщееУникальный идентификатор : 226602177042369518002226830229181864289 (0xAA79FDE81B6CD7C9B89255C96A3C9961)Полное имя : S:\The.Real.O.Neals.S02.1080p.AMZN.WEBRip.Rus.Eng_FILMS.CLUB\The.Real.O.Neals.S02E01.1080p.AMZN.WEBRip.Rus.Eng_FILMS.CLUB.mkvФормат : MatroskaВерсия формата : Version 4 / Version 2Размер файла : 2,05 ГбайтПродолжительность : 20 м.Общий поток : 14,3 Мбит/секНазвание фильма : The Real O'Neals S02E01 - ReJliz FILMS CLUB by BenderBESTДата кодирования : UTC 2017-12-21 17:52:01Программа кодирования : mkvmerge v6.9.1 ('Blue Panther') 32bit built on Apr 18 2014 18:15:44Библиотека кодирования : libebml v1.3.0 + libmatroska v1.4.1

ВидеоИдентификатор : 1Формат : AVCФормат/Информация : Advanced Video CodecПрофиль формата : [email protected]Параметр CABAC формата : ДаПараметр ReFrames формата : 4 кадраИдентификатор кодека : V_MPEG4/ISO/AVCПродолжительность : 20 м.Битрейт : 13,2 Мбит/секШирина : 1920 пикселейВысота : 1080 пикселейСоотношение сторон : 16:9Режим частоты кадров : ПостоянныйЧастота кадров : 25,000 кадров/секЧастота кадров в оригинале : 23,976 (24000/1001) кадра/секЦветовое пространство : YUVСубдискретизация насыщенности : 4:2:0Битовая глубина : 8 битТип развёртки : ПрогрессивнаяБит/(Пиксели*Кадры) : 0.255Размер потока : 1,89 Гбайт (92%)Библиотека кодирования : x264 core 148 r2638 7599210Настройки программы : cabac=1 / ref=4 / deblock=1:-1:-3 / analyse=0x3:0x133 / me=umh / subme=10 / psy=1 / psy_rd=1.00:0.00 / mixed_ref=1 / me_range=48 / chroma_me=1 / trellis=2 / 8x8dct=1 / cqm=0 / deadzone=21,11 / fast_pskip=1 / chroma_qp_offset=-2 / threads=12 / lookahead_threads=2 / sliced_threads=0 / nr=0 / decimate=0 / interlaced=0 / bluray_compat=0 / constrained_intra=0 / bframes=8 / b_pyramid=2 / b_adapt=2 / b_bias=0 / direct=3 / weightb=1 / open_gop=0 / weightp=2 / keyint=240 / keyint_min=23 / scenecut=40 / intra_refresh=0 / rc=crf / mbtree=0 / crf=17.0 / qcomp=0.60 / qpmin=0 / qpmax=69 / qpstep=4 / ip_ratio=1.30 / pb_ratio=1.20 / aq=1:0.90Язык : EnglishDefault : ДаForced : Да

Аудио #1Идентификатор : 2Формат : AC-3Формат/Информация : Audio Coding 3Расширение режима : CM (complete main)Параметр Endianness формата : BigИдентификатор кодека : A_AC3Продолжительность : 20 м.Вид битрейта : ПостоянныйБитрейт : 192 Кбит/секКаналы : 2 каналаРасположение каналов : Front: L RЧастота : 48,0 КГцЧастота кадров : 31,250 кадров/сек (1536 spf)Метод сжатия : С потерямиРазмер потока : 28,2 Мбайт (1%)Заголовок : AC3 2.0 @ 192 kbps - MVO, AmediaЯзык : RussianDefault : ДаForced : Да

Аудио #2Идентификатор : 3Формат : AC-3Формат/Информация : Audio Coding 3Расширение режима : CM (complete main)Параметр Endianness формата : BigИдентификатор кодека : A_AC3Продолжительность : 20 м.Вид битрейта : ПостоянныйБитрейт : 640 Кбит/секКаналы : 6 каналовРасположение каналов : Front: L C R, Side: L R, LFEЧастота : 48,0 КГцЧастота кадров : 31,250 кадров/сек (1536 spf)Метод сжатия : С потерямиРазмер потока : 93,9 Мбайт (4%)Заголовок : AC3 5.1 @ 640 kbpsЯзык : EnglishDefault : НетForced : Нет

ТекстИдентификатор : 4Формат : UTF-8Идентификатор кодека : S_TEXT/UTF8Идентификатор кодека/Информация : UTF-8 Plain TextЗаголовок : SDHЯзык : EnglishDefault : НетForced : Нет


Трекер:  [ 11-Июл-2018 13:48 ]

  

Скачать .torrent

Размер .torrent файла 177 KB


Размер: 35.06 GB
Хэш (hash) релиза: b6b6da62fbc0d000b022b4f021c6761e63fcc0b6
Подписка на обновления:

Еще никто не оставлял запись к записи скачать торрент Настоящие О’Нилы The Real ONeals . Будь первым!

!Обратная связь