Neues GEZ-Modell: Rundfunkbeitrag soll automatisch steigen – warum das gut ist | Télécharger Part 2 | Euphoria

Скачать через торрент Все в порядке Всё в порядке Фильм бесплатно в хорошем качестве torrent

Скачивайте на UnionPeer.org фильмы через торрент без регистрации. Новинки кино в хорошем качестве через торрент. На UnionPeer.org можно скачать через торрент фильмы 2014 и 2015 годов. Самые новые фильмы.

Скачать торрент Все в порядке Всё в порядке бесплатно через .torrent фильм мультфильм сериал

Статистика раздачи
Размер:  25.7 GB   |    Зарегистрирован:  10 дней   |    .torrent скачан:  22 раза   |   
Раздают:  1  
   
загрузка...
 
Автор Сообщение

Galfimbul

avatar Galfimbul


Всё в порядке / Tout va bien / All's Well
Год выпуска: 1972
Страна: Франция, Италия
Жанр: драма
Продолжительность: 01:35:59
Перевод: Авторский (одноголосый закадровый) Роман Янкелевич
Оригинальная аудиодорожка: Французская
Субтитры: Английские (Criterion), японские
Режиссер: Жан-Люк Годар / Jean-Luc Godard, Жан-Пьер Горен / Jean-Pierre Gorin

В ролях: Ив Монтан / Yves Montand, Джейн Фонда / Jane Fonda, Ив Габриэлли / Yves Gabrielli, Эрик Шартье / Eric Chartier, Иллизабет Шовен / Illizabeth Chauvin, Пьер Ондри / Pierre Ondry, Жан Пиньоль / Jean Pignol, Жан-Пьер Рассам / Jean-Pierre Rassam, Витторио Каприоли / Vittorio Caprioli
Описание:
Самый коммерческий фильм Годара после "Уик-энда" и самая интенсивная попытка вложить политическую тему в кино, рассчитанное на популярность. Для того чтобы донести до зрителя идею классовой борьбы, Годар пригласил двух знаменитых актеров - Джейн Фонду и Ива Монтана. Сюжет в картине существует только для того, как говорит сам Годар, чтобы обеспечить "историю для тех, кому она уже по идее не должна быть нужна". Фонда в роли американской репортерши, живущей в Париже с мужем (Монтан), бывшим режиссером "новой волны", теперь снимающим рекламу. Они едут на колбасную фабрику и попадают в самый центр забастовки. Рабочие выкрикивают маоистские лозунги, произносят политические речи, захватывают офисные помещения. Менеджер фабрики заперт в своем кабинете...
Заканчивается кино даже без всякого намека на попытку завершить рассказ, позволяя "каждому создавать свою собственную историю". Фильм отличается от других политических лент Годара ("Ветер с Востока", "Увидимся у Мао" или "Владимир и Роза"). Он прошел коммерческий прокат, тогда как многие другие его политические фильмы показывались только рабочим и студентам. В картине заняты известные актеры, ей была оказана поддержка компанией "Paramount" - позже студия отказалась от дистрибуции. Это благородная, но не более, попытка донести антибуржуазное кино до массовой аудитории.

Иванов М.
Присутствует ненормативная лексика!
За русскую дорожку спасибо ГД, за работу со зуком спасибо Нордер'у.

| | Сэмпл
Качество: BDRemux 1080i (Tout va bien 1972 1080i JPN Blu-ray AVC LPCM 2.0)
Контейнер: MKV
Видео: AVC (x264), 1920x1080 (1.66:1), 29.97 fps, 36406 kbps
Аудио 1: Русский AC3 2.0, 48 kHz, 192 kbps
Аудио 2: Французский DTS-HD MA 2.0, 48 kHz, 1697 kbps, 16-bit (DTS Core: 2.0, 48 kHz, 1509 kbps, 16-bit)
Формат субтитров: softsub (SRT)
General
Unique ID : 260194106462473996564954329114927156925 (0xC3BF8FE5B6ECEFEDF8182CB4ADDBCEBD)
Complete name : Tout.va.bien.1972.1800i.BDRemux.mkv
Format : Matroska
Format version : Version 2
File size : 25.7 GiB
Duration : 1 h 35 min
Overall bit rate : 38.3 Mb/s
Movie name : Tout va bien / Всё в порядке (1972) – RuTracker
Encoded date : UTC 2018-07-10 18:56:59
Writing application : mkvmerge v23.0.0 ('The Bride Said No') 64-bit
Writing library : libebml v1.3.6 + libmatroska v1.4.9
Cover : Yes
Attachments : cover.jpg

Video
ID : 1
Format : AVC
Format/Info : Advanced Video Codec
Format profile : [email protected]
Format settings : CABAC / 3 Ref Frames
Format settings, CABAC : Yes
Format settings, RefFrames : 3 frames
Codec ID : V_MPEG4/ISO/AVC
Duration : 1 h 35 min
Bit rate mode : Constant
Bit rate : 38.0 Mb/s
Width : 1 920 pixels
Height : 1 080 pixels
Display aspect ratio : 16:9
Frame rate mode : Constant
Frame rate : 29.970 (30000/1001) FPS
Standard : NTSC
Color space : YUV
Chroma subsampling : 4:2:0
Bit depth : 8 bits
Scan type : MBAFF
Scan type, store method : Interleaved fields
Scan order : Top Field First
Bits/(Pixel*Frame) : 0.611
Stream size : 24.4 GiB (95%)
Language : French
Default : Yes
Forced : No
Color range : Limited
Color primaries : BT.709
Transfer characteristics : BT.709
Matrix coefficients : BT.709

Audio #1
ID : 2
Format : AC-3
Format/Info : Audio Coding 3
Codec ID : A_AC3
Duration : 1 h 35 min
Bit rate mode : Constant
Bit rate : 192 kb/s
Channel(s) : 2 channels
Channel positions : Front: L R
Sampling rate : 48.0 kHz
Frame rate : 31.250 FPS (1536 SPF)
Bit depth : 16 bits
Compression mode : Lossy
Stream size : 132 MiB (1%)
Title : AVO – Роман Янкелевич
Language : Russian
Service kind : Complete Main
Default : Yes
Forced : No

Audio #2
ID : 3
Format : DTS
Format/Info : Digital Theater Systems
Format profile : MA / Core
Codec ID : A_DTS
Duration : 1 h 35 min
Bit rate mode : Variable / Constant
Bit rate : 1 697 kb/s / 1 509 kb/s
Channel(s) : 2 channels
Channel positions : Front: L R
Sampling rate : 48.0 kHz
Frame rate : 93.750 FPS (512 SPF)
Bit depth : 16 bits
Compression mode : Lossless / Lossy
Stream size : 1.14 GiB (4%)
Title : Original
Language : French
Default : No
Forced : No

Text #1
ID : 4
Format : UTF-8
Codec ID : S_TEXT/UTF8
Codec ID/Info : UTF-8 Plain Text
Duration : 1 h 35 min
Bit rate : 61 b/s
Count of elements : 1143
Stream size : 43.0 KiB (0%)
Title : Criterion
Language : English
Default : No
Forced : No

Text #2
ID : 5
Format : PGS
Codec ID : S_HDMV/PGS
Codec ID/Info : Picture based subtitle format used on BDs/HD-DVDs
Duration : 1 h 35 min
Bit rate : 33.2 kb/s
Count of elements : 2697
Stream size : 22.7 MiB (0%)
Language : Japanese
Default : No
Forced : No

Menu
00:00:00.000 : en:01. Opening Titles
00:01:39.182 : en:02. He, She, It
00:08:24.921 : en:03. Factory
00:13:51.956 : en:04. Manager
00:18:11.090 : en:05. Union
00:26:03.729 : en:06. Nonunion
00:29:44.783 : en:07. They
00:31:41.316 : en:08. Day, Night
00:39:22.986 : en:09. We
00:42:25.877 : en:10. Next Day
00:46:13.688 : en:11. Truth
00:52:31.357 : en:12. News
00:52:50.834 : en:13. He
01:02:07.349 : en:14. She
01:07:49.148 : en:15. She and He
01:13:41.208 : en:16. Today (1)
01:20:51.555 : en:17. Today (2)
01:22:07.256 : en:18. Supermarket
01:32:04.144 : en:19. Today (3)
01:33:14.214 : en:20. Me, France, 1972


Трекер:  [ 11-Июл-2018 13:30 ]

  

Скачать .torrent

Размер .torrent файла 129 KB


Размер: 25.7 GB
Хэш (hash) релиза: 871680c7901fc46c7c2ebb63fef029e24def9c55
Подписка на обновления:

Еще никто не оставлял запись к записи скачать торрент Все в порядке Всё в порядке . Будь первым!

!Обратная связь