Citizen Rose (2018 - ongoing) RATING 5.2 / 10 QUALITY | American Vandal | Family Guy

Скачать через торрент Инструкция по разводу для женщин Girlfriends Guide to Divorce Фильм бесплатно в хорошем качестве torrent

Скачивайте на UnionPeer.org фильмы через торрент без регистрации. Новинки кино в хорошем качестве через торрент. На UnionPeer.org можно скачать через торрент фильмы 2014 и 2015 годов. Самые новые фильмы.

Скачать торрент Инструкция по разводу для женщин Girlfriends Guide to Divorce бесплатно через .torrent фильм мультфильм сериал

Статистика раздачи
Размер:  1.15 GB   |    Зарегистрирован:  7 дней   |    .torrent скачан:  23 раза   |   
Раздают:  1  
   
загрузка...
 
Автор Сообщение

Galfimbul

avatar Galfimbul


Инструкция по разводу для женщин / Girlfriends' Guide to Divorce


Год выпуска: 2018
Страна: США
Жанр: Комедия, драма
Продолжительность: ~ 00:44:00

Перевод: Профессиональный (многоголосый закадровый) | Jaskier
Режиссёр: Адам Брукс, Лесли Либман, Роберт Данкан МакНил

В ролях: Лиза Эдельстейн, Джанин Гарофало, Бо Гарретт, Аланна Юбак, Некар Задеган, Пол Адельштейн

Описание: Эбби МакКарти — 40-летняя писательница из Лос-Анджелеса, автор бестселлеров, призванных помочь женщинам наладить личную жизнь. Втайне от окружающих Эбби переживает разрыв с мужем и пытается начать жизнь заново. Теперь она гораздо чаще общается со своими разведенными подругами, нежели с замужними, и обращается к ним за советом. Внезапные перемены в жизни открывают ей целый мир новых возможностей и не испытанных ранее ощущений.



Качество: WEB-DL 720p
Формат: MKV
Видео: X264, ~ 3000 kbps, 1280x720 (16:9), 23.976 fps
Аудио 1: AC3, 48,0 КГц, 6 ch, 384 kbps - Rus
Аудио 2: AC3, 48,0 КГц, 6 ch, 384 kbps - Eng
Субтитры: отсутствуют
Реклама: аудио, два раза в начале и в конце по 13 секунд
Ссылка на предыдущие и альтернативные раздачи
Общее
Уникальный идентификатор                 : 182577196365731651058816468119929241324 (0x895B16C65D54534990FC67F373583EEC)
Формат                                   : Matroska
Версия формата                           : Version 2
Размер файла                             : 1,15 Гбайт
Продолжительность                        : 43 м.
Общий поток                              : 3805 Кбит/сек
Дата кодирования                         : UTC 2018-07-10 16:37:58
Программа кодирования                    : mkvmerge v5.8.0 ('No Sleep / Pillow') built on Sep  2 2012 15:37:04
Библиотека кодирования                   : libebml v1.2.3 + libmatroska v1.3.0

Видео
Идентификатор                            : 1
Формат                                   : AVC
Формат/Информация                        : Advanced Video Codec
Профиль формата                          : [email protected]
Параметр CABAC формата                   : Да
Параметр ReFrames формата                : 5 кадров
Идентификатор кодека                     : V_MPEG4/ISO/AVC
Продолжительность                        : 43 м.
Битрейт                                  : 2962 Кбит/сек
Ширина                                   : 1280 пикселей
Высота                                   : 720 пикселей
Соотношение сторон                       : 16:9
Режим частоты кадров                     : Постоянный
Частота кадров                           : 23,976 (24000/1001) кадра/сек
Цветовое пространство                    : YUV
Субдискретизация насыщенности            : 4:2:0
Битовая глубина                          : 8 бит
Тип развёртки                            : Прогрессивная
Бит/(Пиксели*Кадры)                      : 0.134
Размер потока                            : 917 Мбайт (78%)
Default                                  : Да
Forced                                   : Нет
Цветовой диапазон                        : Limited
Основные цвета                           : BT.709
Характеристики трансфера                 : BT.709
Коэффициенты матрицы                     : BT.709

Аудио #1
Идентификатор                            : 2
Формат                                   : AC-3
Формат/Информация                        : Audio Coding 3
Расширение режима                        : CM (complete main)
Параметр Endianness формата              : Big
Идентификатор кодека                     : A_AC3
Продолжительность                        : 43 м.
Вид битрейта                             : Постоянный
Битрейт                                  : 384 Кбит/сек
Каналы                                   : 6 каналов
Расположение каналов                     : Front: L C R, Side: L R, LFE
Частота                                  : 48,0 КГц
Частота кадров                           : 31,250 кадров/сек (1536 spf)
Метод сжатия                             : С потерями
Размер потока                            : 119 Мбайт (10%)
Заголовок                                : Jaskier
Язык                                     : Russian
Default                                  : Да
Forced                                   : Нет

Аудио #2
Идентификатор                            : 3
Формат                                   : AC-3
Формат/Информация                        : Audio Coding 3
Расширение режима                        : CM (complete main)
Параметр Endianness формата              : Big
Идентификатор кодека                     : A_AC3
Продолжительность                        : 43 м.
Вид битрейта                             : Постоянный
Битрейт                                  : 384 Кбит/сек
Каналы                                   : 6 каналов
Расположение каналов                     : Front: L C R, Side: L R, LFE
Частота                                  : 48,0 КГц
Частота кадров                           : 31,250 кадров/сек (1536 spf)
Метод сжатия                             : С потерями
Размер потока                            : 119 Мбайт (10%)
Язык                                     : English
Default                                  : Нет
Forced                                   : Нет
Когда раздача ведётся путём добавления новых серий, при каждом добавлении создётся новый торрент. Чтобы начать докачку новой серии, пользователям необходимо сделать следующее:
(1) остановить скачивание,
(2) удалить старый торрент у себя из клиента (старые серии удалять не надо),
(3) скачать новый торрент и запустить его у себя в клиенте вместо старого, при этом указать клиенту путь в старую папку, куда и должно происходить скачивание новых серий.
Ваш клиент при этом должен произвести хеширование (проверку) старой папки (если не производит сам - помогите ему сделать это), и будет докачивать только те серии, которых у вас ещё нет. Старые серии при этом не удаляются, а продолжают раздаваться!
Eсли вы уже удалили старые серии, то предотвратить повторную закачку старых серий можно, отжав галочку в соответсвующих местах при запуске нового торрента. По возможности, желательно не удалять старые серии как можно дольше, чтобы релизёр не столько продолжал раздавать старые серии, а смог сконцентрироваться на новых.


Трекер:  [ 11-Июл-2018 13:18 ]

  

Скачать .torrent

Размер .torrent файла 12 KB


Размер: 1.15 GB
Хэш (hash) релиза: c3f28ae98ca92ef4ac21e8f11c79e72e24c61857
Подписка на обновления:

Торренты, похожие на Инструкция по разводу для женщин Girlfriends Guide to Divorce скачать торрент

Форум Название Автор Размер S L Добавлен
Зарубежные сериалы ·%· Инструкция по разводу для женщин / Girlfriends' Guide to Divorce / Сезон: 5 / Серии: 1- из 13 (Адам Брукс, Лесли Либман, Роберт Данкан МакНил) [2018, США, Комедия, драма, WEB-DLRip] MVO (Jaskier) + Original Galfimbul 540059648515 MB 0 0 1531248488

21:48

10-Июл-18

Еще никто не оставлял запись к записи скачать торрент Инструкция по разводу для женщин Girlfriends Guide to Divorce . Будь первым!

!Обратная связь