Knowing Brother Episode 2 | Colony 3x10 Sea Spray | AnoHana - Die Blume, die wir an jenem Tag sahen

Скачать через торрент Девственница Джейн Jane the Virgin Фильм бесплатно в хорошем качестве torrent

Скачивайте на UnionPeer.org фильмы через торрент без регистрации. Новинки кино в хорошем качестве через торрент. На UnionPeer.org можно скачать через торрент фильмы 2014 и 2015 годов. Самые новые фильмы.

Скачать торрент Девственница Джейн Jane the Virgin бесплатно через .torrent фильм мультфильм сериал

Статистика раздачи
Размер:  41.82 GB   |    Зарегистрирован:  7 дней   |    .torrent скачан:  19 раз   |   
Раздают:  1  
   
загрузка...
 
Автор Сообщение

Galfimbul

avatar Galfimbul


Девственница Джейн / Jane the Virgin

Страна: США
Жанр: Комедия, драма, мелодрама
Продолжительность серии: 22 х ~ 00:43:00
Год выпуска: 2015-2016
Перевод: Профессиональный (многоголосый закадровый)

Режиссёр: Дебби Аллен, Ута Бризвитц, Эдвард Орнелас
В ролях: Джина Родригез, Андреа Наведо, Яэль Гробглас, Джастин Бальдони, Ивонн Колл, Бретт Дир, Хайме Камиль, Ази Тесфай, Энтони Мендес, Бриджет Риган, Присцилла Барнс, Дженна Ортега, Камилль Коллар, Дайан Герерро, Брайан ДаРе, Карло Рота, Яра Мартинес, Крис Корбин, Грег Коллинз, Дэвид Кастанеда

Описание: Джейн выросла под влиянием строгой латиноамериканской бабушки, которая с ранних лет учила внучку скромности и воздержанию. Даже став красивой молодой женщиной, она оставалась целомудренной и пресекала все неприличные поползновения своего жениха. Но обычный поход к гинекологу изменил всю жизнь Джейн. Она стала жертвой случайного искусственного оплодотворения! Мир перевернулся с ног на голову, и теперь ей предстоит принять сложное решение, разобраться с шокированной родней, познакомиться с биологическим отцом малыша и сделать еще много такого, о чем две недели назад она не могла и помыслить.



Качество: WEB-DL 1080p
Формат: MKV
Видео: MPEG-4 AVC, 1920x1080 [16:9], 23.976 fps, ~ 5800 Kbps
Аудио 1: [Русский] AC3, 48 kHz, 6 ch, 384 Kbps - Amedia
Аудио 2: [Английский] AC3, 48 kHz, 6 ch, 384 Kbps
Субтитры: Русские (Full), английские (Forced, SDH)

1 сезон
2 сезон
3 сезон
4 сезон
Релиз CasStudio - BenderBEST
ОбщееУникальный идентификатор : 137426235779167441511594556946475007077 (0x6763548C203C8862EA274172EA9E3C65)Полное имя : S:\Новая папка\Jane.The.Virgin.S02.1080p.NF.WEB-DL.Rus.Eng_CasStudio\Jane.The.Virgin.S02E01.Chapter.Twenty-Three.1080p.NF.WEB-DL.Rus.Eng_CasStudio.mkvФормат : MatroskaВерсия формата : Version 4 / Version 2Размер файла : 2,34 ГбайтПродолжительность : 42 м.Режим общего битрейта : ПеременныйОбщий поток : 7906 Кбит/секДата кодирования : UTC 2018-06-16 19:25:30Программа кодирования : mkvmerge v24.0.0 ('Beyond The Pale') 64-bitБиблиотека кодирования : libebml v1.3.6 + libmatroska v1.4.9

ВидеоИдентификатор : 1Формат : AVCФормат/Информация : Advanced Video CodecПрофиль формата : [email protected]Параметр CABAC формата : ДаПараметр ReFrames формата : 3 кадраИдентификатор кодека : V_MPEG4/ISO/AVCПродолжительность : 42 м.Вид битрейта : ПеременныйБитрейт : 7150 Кбит/секМаксимальный битрейт : 10,7 Мбит/секШирина : 1920 пикселейВысота : 1080 пикселейСоотношение сторон : 16:9Режим частоты кадров : ПостоянныйЧастота кадров : 23,976 (24000/1001) кадра/секЦветовое пространство : YUVСубдискретизация насыщенности : 4:2:0Битовая глубина : 8 битТип развёртки : ПрогрессивнаяБит/(Пиксели*Кадры) : 0.144Размер потока : 2,11 Гбайт (90%)Библиотека кодирования : x264 core 118Настройки программы : cabac=1 / ref=3 / deblock=1:0:0 / analyse=0x1:0x111 / me=umh / subme=10 / psy=1 / psy_rd=1.00:0.00 / mixed_ref=1 / me_range=24 / chroma_me=1 / trellis=2 / 8x8dct=0 / cqm=0 / deadzone=21,11 / fast_pskip=1 / chroma_qp_offset=-2 / threads=8 / sliced_threads=0 / nr=0 / decimate=1 / interlaced=0 / bluray_compat=0 / constrained_intra=0 / bframes=2 / b_pyramid=0 / b_adapt=2 / b_bias=0 / direct=3 / weightb=1 / open_gop=0 / weightp=2 / keyint=48 / keyint_min=25 / scenecut=0 / intra_refresh=0 / rc_lookahead=0 / rc=2pass / mbtree=1 / bitrate=7150 / ratetol=1.0 / qcomp=0.50 / qpmin=6 / qpmax=51 / qpstep=4 / cplxblur=20.0 / qblur=0.5 / vbv_maxrate=10725 / vbv_bufsize=14300 / nal_hrd=vbr / ip_ratio=1.40 / aq=1:1.00Default : ДаForced : Нет

Аудио #1Идентификатор : 2Формат : AC-3Формат/Информация : Audio Coding 3Расширение режима : CM (complete main)Параметр Endianness формата : BigИдентификатор кодека : A_AC3Продолжительность : 42 м.Вид битрейта : ПостоянныйБитрейт : 384 Кбит/секКаналы : 6 каналовРасположение каналов : Front: L C R, Side: L R, LFEЧастота : 48,0 КГцЧастота кадров : 31,250 кадров/сек (1536 spf)Метод сжатия : С потерямиРазмер потока : 116 Мбайт (5%)Язык : RussianDefault : ДаForced : Нет

Аудио #2Идентификатор : 3Формат : AC-3Формат/Информация : Audio Coding 3Расширение режима : CM (complete main)Параметр Endianness формата : BigИдентификатор кодека : A_AC3Продолжительность : 42 м.Вид битрейта : ПостоянныйБитрейт : 384 Кбит/секКаналы : 6 каналовРасположение каналов : Front: L C R, Side: L R, LFEЧастота : 48,0 КГцЧастота кадров : 31,250 кадров/сек (1536 spf)Метод сжатия : С потерямиРазмер потока : 116 Мбайт (5%)Заголовок : EnglishЯзык : EnglishDefault : НетForced : Нет

Текст #1Идентификатор : 4Формат : UTF-8Идентификатор кодека : S_TEXT/UTF8Идентификатор кодека/Информация : UTF-8 Plain TextПродолжительность : 30 м.Битрейт : 3 бит/секCount of elements : 15Размер потока : 764 байт (0%)Заголовок : ForcedЯзык : RussianDefault : ДаForced : Да

Текст #2Идентификатор : 5Формат : UTF-8Идентификатор кодека : S_TEXT/UTF8Идентификатор кодека/Информация : UTF-8 Plain TextПродолжительность : 38 м.Битрейт : 3 бит/секCount of elements : 38Размер потока : 1,08 Кбайт (0%)Заголовок : ForcedЯзык : EnglishDefault : НетForced : Да

Текст #3Идентификатор : 6Формат : UTF-8Идентификатор кодека : S_TEXT/UTF8Идентификатор кодека/Информация : UTF-8 Plain TextПродолжительность : 41 м.Битрейт : 97 бит/секCount of elements : 944Размер потока : 29,9 Кбайт (0%)Заголовок : SDHЯзык : EnglishDefault : НетForced : Нет

Текст #4Идентификатор : 7Формат : UTF-8Идентификатор кодека : S_TEXT/UTF8Идентификатор кодека/Информация : UTF-8 Plain TextПродолжительность : 41 м.Битрейт : 152 бит/секCount of elements : 918Размер потока : 46,7 Кбайт (0%)Язык : ArabicDefault : НетForced : Нет

Текст #5Идентификатор : 8Формат : UTF-8Идентификатор кодека : S_TEXT/UTF8Идентификатор кодека/Информация : UTF-8 Plain TextПродолжительность : 41 м.Битрейт : 94 бит/секCount of elements : 906Размер потока : 28,8 Кбайт (0%)Язык : DanishDefault : НетForced : Нет

Текст #6Идентификатор : 9Формат : UTF-8Идентификатор кодека : S_TEXT/UTF8Идентификатор кодека/Информация : UTF-8 Plain TextПродолжительность : 41 м.Битрейт : 103 бит/секCount of elements : 806Размер потока : 31,5 Кбайт (0%)Язык : GermanDefault : НетForced : Нет

Текст #7Идентификатор : 10Формат : UTF-8Идентификатор кодека : S_TEXT/UTF8Идентификатор кодека/Информация : UTF-8 Plain TextПродолжительность : 41 м.Битрейт : 147 бит/секCount of elements : 843Размер потока : 45,3 Кбайт (0%)Язык : GreekDefault : НетForced : Нет

Текст #8Идентификатор : 11Формат : UTF-8Идентификатор кодека : S_TEXT/UTF8Идентификатор кодека/Информация : UTF-8 Plain TextПродолжительность : 41 м.Битрейт : 91 бит/секCount of elements : 770Размер потока : 27,9 Кбайт (0%)Язык : SpanishDefault : НетForced : Нет

Текст #9Идентификатор : 12Формат : UTF-8Идентификатор кодека : S_TEXT/UTF8Идентификатор кодека/Информация : UTF-8 Plain TextПродолжительность : 41 м.Битрейт : 88 бит/секCount of elements : 770Размер потока : 27,0 Кбайт (0%)Заголовок : EuropeanЯзык : SpanishDefault : НетForced : Нет

Текст #10Идентификатор : 13Формат : UTF-8Идентификатор кодека : S_TEXT/UTF8Идентификатор кодека/Информация : UTF-8 Plain TextПродолжительность : 41 м.Битрейт : 92 бит/секCount of elements : 898Размер потока : 28,4 Кбайт (0%)Язык : FinnishDefault : НетForced : Нет

Текст #11Идентификатор : 14Формат : UTF-8Идентификатор кодека : S_TEXT/UTF8Идентификатор кодека/Информация : UTF-8 Plain TextПродолжительность : 41 м.Битрейт : 97 бит/секCount of elements : 800Размер потока : 29,7 Кбайт (0%)Язык : FrenchDefault : НетForced : Нет

Текст #12Идентификатор : 15Формат : UTF-8Идентификатор кодека : S_TEXT/UTF8Идентификатор кодека/Информация : UTF-8 Plain TextПродолжительность : 41 м.Битрейт : 137 бит/секCount of elements : 723Размер потока : 42,2 Кбайт (0%)Язык : HebrewDefault : НетForced : Нет

Текст #13Идентификатор : 16Формат : UTF-8Идентификатор кодека : S_TEXT/UTF8Идентификатор кодека/Информация : UTF-8 Plain TextПродолжительность : 41 м.Битрейт : 106 бит/секCount of elements : 804Размер потока : 32,7 Кбайт (0%)Язык : ItalianDefault : НетForced : Нет

Текст #14Идентификатор : 17Формат : UTF-8Идентификатор кодека : S_TEXT/UTF8Идентификатор кодека/Информация : UTF-8 Plain TextПродолжительность : 41 м.Битрейт : 87 бит/секCount of elements : 910Размер потока : 26,8 Кбайт (0%)Язык : JapaneseDefault : НетForced : Нет

Текст #15Идентификатор : 18Формат : UTF-8Идентификатор кодека : S_TEXT/UTF8Идентификатор кодека/Информация : UTF-8 Plain TextПродолжительность : 41 м.Битрейт : 102 бит/секCount of elements : 793Размер потока : 31,2 Кбайт (0%)Язык : KoreanDefault : НетForced : Нет

Текст #16Идентификатор : 19Формат : UTF-8Идентификатор кодека : S_TEXT/UTF8Идентификатор кодека/Информация : UTF-8 Plain TextПродолжительность : 41 м.Битрейт : 92 бит/секCount of elements : 917Размер потока : 28,2 Кбайт (0%)Язык : Norwegian BokmalDefault : НетForced : Нет

Текст #17Идентификатор : 20Формат : UTF-8Идентификатор кодека : S_TEXT/UTF8Идентификатор кодека/Информация : UTF-8 Plain TextПродолжительность : 41 м.Битрейт : 93 бит/секCount of elements : 797Размер потока : 28,6 Кбайт (0%)Язык : DutchDefault : НетForced : Нет

Текст #18Идентификатор : 21Формат : UTF-8Идентификатор кодека : S_TEXT/UTF8Идентификатор кодека/Информация : UTF-8 Plain TextПродолжительность : 41 м.Битрейт : 73 бит/секCount of elements : 799Размер потока : 22,5 Кбайт (0%)Язык : PolishDefault : НетForced : Нет

Текст #19Идентификатор : 22Формат : UTF-8Идентификатор кодека : S_TEXT/UTF8Идентификатор кодека/Информация : UTF-8 Plain TextПродолжительность : 41 м.Битрейт : 105 бит/секCount of elements : 809Размер потока : 32,2 Кбайт (0%)Язык : PortugueseDefault : НетForced : Нет

Текст #20Идентификатор : 23Формат : UTF-8Идентификатор кодека : S_TEXT/UTF8Идентификатор кодека/Информация : UTF-8 Plain TextПродолжительность : 41 м.Битрейт : 100 бит/секCount of elements : 803Размер потока : 30,8 Кбайт (0%)Заголовок : BrazilianЯзык : PortugueseDefault : НетForced : Нет

Текст #21Идентификатор : 24Формат : UTF-8Идентификатор кодека : S_TEXT/UTF8Идентификатор кодека/Информация : UTF-8 Plain TextПродолжительность : 41 м.Битрейт : 91 бит/секCount of elements : 765Размер потока : 28,2 Кбайт (0%)Язык : RomanianDefault : НетForced : Нет

Текст #22Идентификатор : 25Формат : UTF-8Идентификатор кодека : S_TEXT/UTF8Идентификатор кодека/Информация : UTF-8 Plain TextПродолжительность : 41 м.Битрейт : 149 бит/секCount of elements : 821Размер потока : 45,8 Кбайт (0%)Язык : RussianDefault : НетForced : Нет

Текст #23Идентификатор : 26Формат : UTF-8Идентификатор кодека : S_TEXT/UTF8Идентификатор кодека/Информация : UTF-8 Plain TextПродолжительность : 41 м.Битрейт : 100 бит/секCount of elements : 917Размер потока : 30,9 Кбайт (0%)Язык : SwedishDefault : НетForced : Нет

Текст #24Идентификатор : 27Формат : UTF-8Идентификатор кодека : S_TEXT/UTF8Идентификатор кодека/Информация : UTF-8 Plain TextПродолжительность : 41 м.Битрейт : 206 бит/секCount of elements : 791Размер потока : 63,1 Кбайт (0%)Язык : ThaiDefault : НетForced : Нет

Текст #25Идентификатор : 28Формат : UTF-8Идентификатор кодека : S_TEXT/UTF8Идентификатор кодека/Информация : UTF-8 Plain TextПродолжительность : 41 м.Битрейт : 104 бит/секCount of elements : 893Размер потока : 32,0 Кбайт (0%)Язык : TurkishDefault : НетForced : Нет

Текст #26Идентификатор : 29Формат : UTF-8Идентификатор кодека : S_TEXT/UTF8Идентификатор кодека/Информация : UTF-8 Plain TextПродолжительность : 41 м.Битрейт : 86 бит/секCount of elements : 809Размер потока : 26,4 Кбайт (0%)Заголовок : SimplifiedЯзык : ChineseDefault : НетForced : Нет

Текст #27Идентификатор : 30Формат : UTF-8Идентификатор кодека : S_TEXT/UTF8Идентификатор кодека/Информация : UTF-8 Plain TextПродолжительность : 41 м.Битрейт : 81 бит/секCount of elements : 809Размер потока : 24,8 Кбайт (0%)Заголовок : TraditionalЯзык : ChineseDefault : НетForced : Нет


Трекер:  [ 11-Июл-2018 10:48 ]

  

Скачать .torrent

Размер .torrent файла 212 KB


Размер: 41.82 GB
Хэш (hash) релиза: 8f95886ce7c41968979e6f8af2fd83775b62c98b
Подписка на обновления:

Еще никто не оставлял запись к записи скачать торрент Девственница Джейн Jane the Virgin . Будь первым!

!Обратная связь