Dancing With The Stars US S25E08 WEB x264-TBS [eztv] | Mit Schirm Charme Melone (12) | Super Baldi's Basics FULL GAME 2

Скачать через торрент Девственница Джейн Jane the Virgin Фильм бесплатно в хорошем качестве torrent

Скачивайте на UnionPeer.org фильмы через торрент без регистрации. Новинки кино в хорошем качестве через торрент. На UnionPeer.org можно скачать через торрент фильмы 2014 и 2015 годов. Самые новые фильмы.

Скачать торрент Девственница Джейн Jane the Virgin бесплатно через .torrent фильм мультфильм сериал

Статистика раздачи
Размер:  34.71 GB   |    Зарегистрирован:  2 месяца 10 дней   |    .torrent скачан:  24 раза   |   
Раздают:  1  
   
загрузка...
 
Автор Сообщение

Galfimbul

avatar Galfimbul


Девственница Джейн / Jane the Virgin

Страна: США
Жанр: Комедия, драма, мелодрама
Продолжительность серии: 20 х ~ 00:43:00
Год выпуска: 2016-2017
Перевод: Профессиональный (многоголосый закадровый)

Режиссёр: Дебби Аллен, Ута Бризвитц, Эдвард Орнелас
В ролях: Джина Родригез, Андреа Наведо, Яэль Гробглас, Джастин Бальдони, Ивонн Колл, Бретт Дир, Хайме Камиль, Ази Тесфай, Энтони Мендес, Бриджет Риган, Присцилла Барнс, Дженна Ортега, Камилль Коллар, Дайан Герерро, Брайан ДаРе, Карло Рота, Яра Мартинес, Крис Корбин, Грег Коллинз, Дэвид Кастанеда

Описание: Джейн выросла под влиянием строгой латиноамериканской бабушки, которая с ранних лет учила внучку скромности и воздержанию. Даже став красивой молодой женщиной, она оставалась целомудренной и пресекала все неприличные поползновения своего жениха. Но обычный поход к гинекологу изменил всю жизнь Джейн. Она стала жертвой случайного искусственного оплодотворения! Мир перевернулся с ног на голову, и теперь ей предстоит принять сложное решение, разобраться с шокированной родней, познакомиться с биологическим отцом малыша и сделать еще много такого, о чем две недели назад она не могла и помыслить.



Качество: WEB-DL 1080p
Формат: MKV
Видео: MPEG-4 AVC, 1920x1080 [16:9], 23.976 fps, ~ 5800 Kbps
Аудио 1: [Русский] AC3, 48 kHz, 6 ch, 384 Kbps - Amedia
Аудио 2: [Английский] AC3, 48 kHz, 6 ch, 384 Kbps
Субтитры: Русские (Full), английские (Forced, SDH)

1 сезон
2 сезон
3 сезон
4 сезон
Релиз CasStudio - BenderBEST
ОбщееУникальный идентификатор : 15298627139993494012097583061861258544 (0xB82688DAB30313739541AA4C4C5D530)Полное имя : S:\Новая папка\Jane.The.Virgin.S03.1080p.NF.WEB-DL.Rus.Eng_CasStudio\Jane.The.Virgin.S03E01.Chapter.Forty-Five.1080p.NF.WEB-DL.Rus.Eng_CasStudio.mkvФормат : MatroskaВерсия формата : Version 4 / Version 2Размер файла : 1,65 ГбайтПродолжительность : 42 м.Режим общего битрейта : ПеременныйОбщий поток : 5613 Кбит/секДата кодирования : UTC 2018-06-16 19:49:44Программа кодирования : mkvmerge v24.0.0 ('Beyond The Pale') 64-bitБиблиотека кодирования : libebml v1.3.6 + libmatroska v1.4.9

ВидеоИдентификатор : 1Формат : AVCФормат/Информация : Advanced Video CodecПрофиль формата : [email protected]Параметр CABAC формата : ДаПараметр ReFrames формата : 3 кадраИдентификатор кодека : V_MPEG4/ISO/AVCПродолжительность : 42 м.Вид битрейта : ПеременныйБитрейт : 4870 Кбит/секМаксимальный битрейт : 7305 Кбит/секШирина : 1920 пикселейВысота : 1080 пикселейСоотношение сторон : 16:9Режим частоты кадров : ПостоянныйЧастота кадров : 23,976 (24000/1001) кадра/секЦветовое пространство : YUVСубдискретизация насыщенности : 4:2:0Битовая глубина : 8 битТип развёртки : ПрогрессивнаяБит/(Пиксели*Кадры) : 0.098Размер потока : 1,42 Гбайт (86%)Библиотека кодирования : x264 core 118Настройки программы : cabac=1 / ref=3 / deblock=1:0:0 / analyse=0x1:0x111 / me=umh / subme=10 / psy=1 / psy_rd=1.00:0.00 / mixed_ref=1 / me_range=24 / chroma_me=1 / trellis=2 / 8x8dct=0 / cqm=0 / deadzone=21,11 / fast_pskip=1 / chroma_qp_offset=-2 / threads=8 / sliced_threads=0 / nr=0 / decimate=1 / interlaced=0 / bluray_compat=0 / constrained_intra=0 / bframes=2 / b_pyramid=0 / b_adapt=2 / b_bias=0 / direct=3 / weightb=1 / open_gop=0 / weightp=2 / keyint=48 / keyint_min=25 / scenecut=0 / intra_refresh=0 / rc_lookahead=0 / rc=2pass / mbtree=1 / bitrate=4870 / ratetol=1.0 / qcomp=0.50 / qpmin=6 / qpmax=51 / qpstep=4 / cplxblur=20.0 / qblur=0.5 / vbv_maxrate=7305 / vbv_bufsize=9740 / nal_hrd=vbr / ip_ratio=1.40 / aq=1:1.00Default : ДаForced : Нет

Аудио #1Идентификатор : 2Формат : AC-3Формат/Информация : Audio Coding 3Расширение режима : CM (complete main)Параметр Endianness формата : BigИдентификатор кодека : A_AC3Продолжительность : 42 м.Вид битрейта : ПостоянныйБитрейт : 384 Кбит/секКаналы : 6 каналовРасположение каналов : Front: L C R, Side: L R, LFEЧастота : 48,0 КГцЧастота кадров : 31,250 кадров/сек (1536 spf)Метод сжатия : С потерямиРазмер потока : 115 Мбайт (7%)Язык : RussianDefault : ДаForced : Нет

Аудио #2Идентификатор : 3Формат : AC-3Формат/Информация : Audio Coding 3Расширение режима : CM (complete main)Параметр Endianness формата : BigИдентификатор кодека : A_AC3Продолжительность : 42 м.Вид битрейта : ПостоянныйБитрейт : 384 Кбит/секКаналы : 6 каналовРасположение каналов : Front: L C R, Side: L R, LFEЧастота : 48,0 КГцЧастота кадров : 31,250 кадров/сек (1536 spf)Метод сжатия : С потерямиРазмер потока : 115 Мбайт (7%)Заголовок : EnglishЯзык : EnglishDefault : НетForced : Нет

Текст #1Идентификатор : 4Формат : UTF-8Идентификатор кодека : S_TEXT/UTF8Идентификатор кодека/Информация : UTF-8 Plain TextПродолжительность : 39 м.Битрейт : 7 бит/секCount of elements : 48Размер потока : 2,04 Кбайт (0%)Заголовок : ForcedЯзык : RussianDefault : ДаForced : Да

Текст #2Идентификатор : 5Формат : UTF-8Идентификатор кодека : S_TEXT/UTF8Идентификатор кодека/Информация : UTF-8 Plain TextПродолжительность : 23 м.Битрейт : 2 бит/секCount of elements : 17Размер потока : 467 байт (0%)Заголовок : ForcedЯзык : EnglishDefault : НетForced : Да

Текст #3Идентификатор : 6Формат : UTF-8Идентификатор кодека : S_TEXT/UTF8Идентификатор кодека/Информация : UTF-8 Plain TextПродолжительность : 41 м.Битрейт : 99 бит/секCount of elements : 1047Размер потока : 30,1 Кбайт (0%)Заголовок : SDHЯзык : EnglishDefault : НетForced : Нет

Текст #4Идентификатор : 7Формат : UTF-8Идентификатор кодека : S_TEXT/UTF8Идентификатор кодека/Информация : UTF-8 Plain TextПродолжительность : 41 м.Битрейт : 146 бит/секCount of elements : 843Размер потока : 44,3 Кбайт (0%)Язык : ArabicDefault : НетForced : Нет

Текст #5Идентификатор : 8Формат : UTF-8Идентификатор кодека : S_TEXT/UTF8Идентификатор кодека/Информация : UTF-8 Plain TextПродолжительность : 41 м.Битрейт : 85 бит/секCount of elements : 826Размер потока : 26,0 Кбайт (0%)Язык : DanishDefault : НетForced : Нет

Текст #6Идентификатор : 9Формат : UTF-8Идентификатор кодека : S_TEXT/UTF8Идентификатор кодека/Информация : UTF-8 Plain TextПродолжительность : 41 м.Битрейт : 91 бит/секCount of elements : 732Размер потока : 27,8 Кбайт (0%)Язык : GermanDefault : НетForced : Нет

Текст #7Идентификатор : 10Формат : UTF-8Идентификатор кодека : S_TEXT/UTF8Идентификатор кодека/Информация : UTF-8 Plain TextПродолжительность : 41 м.Битрейт : 92 бит/секCount of elements : 665Размер потока : 28,1 Кбайт (0%)Язык : SpanishDefault : НетForced : Нет

Текст #8Идентификатор : 11Формат : UTF-8Идентификатор кодека : S_TEXT/UTF8Идентификатор кодека/Информация : UTF-8 Plain TextПродолжительность : 41 м.Битрейт : 89 бит/секCount of elements : 720Размер потока : 27,0 Кбайт (0%)Заголовок : EuropeanЯзык : SpanishDefault : НетForced : Нет

Текст #9Идентификатор : 12Формат : UTF-8Идентификатор кодека : S_TEXT/UTF8Идентификатор кодека/Информация : UTF-8 Plain TextПродолжительность : 41 м.Битрейт : 76 бит/секCount of elements : 828Размер потока : 23,1 Кбайт (0%)Язык : FinnishDefault : НетForced : Нет

Текст #10Идентификатор : 13Формат : UTF-8Идентификатор кодека : S_TEXT/UTF8Идентификатор кодека/Информация : UTF-8 Plain TextПродолжительность : 41 м.Битрейт : 96 бит/секCount of elements : 730Размер потока : 29,4 Кбайт (0%)Язык : FrenchDefault : НетForced : Нет

Текст #11Идентификатор : 14Формат : UTF-8Идентификатор кодека : S_TEXT/UTF8Идентификатор кодека/Информация : UTF-8 Plain TextПродолжительность : 41 м.Битрейт : 102 бит/секCount of elements : 672Размер потока : 30,7 Кбайт (0%)Язык : ItalianDefault : НетForced : Нет

Текст #12Идентификатор : 15Формат : UTF-8Идентификатор кодека : S_TEXT/UTF8Идентификатор кодека/Информация : UTF-8 Plain TextПродолжительность : 41 м.Битрейт : 75 бит/секCount of elements : 857Размер потока : 22,8 Кбайт (0%)Язык : JapaneseDefault : НетForced : Нет

Текст #13Идентификатор : 16Формат : UTF-8Идентификатор кодека : S_TEXT/UTF8Идентификатор кодека/Информация : UTF-8 Plain TextПродолжительность : 41 м.Битрейт : 100 бит/секCount of elements : 687Размер потока : 30,5 Кбайт (0%)Язык : KoreanDefault : НетForced : Нет

Текст #14Идентификатор : 17Формат : UTF-8Идентификатор кодека : S_TEXT/UTF8Идентификатор кодека/Информация : UTF-8 Plain TextПродолжительность : 41 м.Битрейт : 81 бит/секCount of elements : 840Размер потока : 24,7 Кбайт (0%)Язык : Norwegian BokmalDefault : НетForced : Нет

Текст #15Идентификатор : 18Формат : UTF-8Идентификатор кодека : S_TEXT/UTF8Идентификатор кодека/Информация : UTF-8 Plain TextПродолжительность : 41 м.Битрейт : 87 бит/секCount of elements : 639Размер потока : 26,4 Кбайт (0%)Язык : DutchDefault : НетForced : Нет

Текст #16Идентификатор : 19Формат : UTF-8Идентификатор кодека : S_TEXT/UTF8Идентификатор кодека/Информация : UTF-8 Plain TextПродолжительность : 41 м.Битрейт : 82 бит/секCount of elements : 670Размер потока : 24,8 Кбайт (0%)Язык : PolishDefault : НетForced : Нет

Текст #17Идентификатор : 20Формат : UTF-8Идентификатор кодека : S_TEXT/UTF8Идентификатор кодека/Информация : UTF-8 Plain TextПродолжительность : 41 м.Битрейт : 93 бит/секCount of elements : 680Размер потока : 28,2 Кбайт (0%)Язык : PortugueseDefault : НетForced : Нет

Текст #18Идентификатор : 21Формат : UTF-8Идентификатор кодека : S_TEXT/UTF8Идентификатор кодека/Информация : UTF-8 Plain TextПродолжительность : 41 м.Битрейт : 77 бит/секCount of elements : 833Размер потока : 23,6 Кбайт (0%)Язык : SwedishDefault : НетForced : Нет

Текст #19Идентификатор : 22Формат : UTF-8Идентификатор кодека : S_TEXT/UTF8Идентификатор кодека/Информация : UTF-8 Plain TextПродолжительность : 41 м.Битрейт : 90 бит/секCount of elements : 729Размер потока : 27,3 Кбайт (0%)Язык : TurkishDefault : НетForced : Нет

Текст #20Идентификатор : 23Формат : UTF-8Идентификатор кодека : S_TEXT/UTF8Идентификатор кодека/Информация : UTF-8 Plain TextПродолжительность : 41 м.Битрейт : 81 бит/секCount of elements : 685Размер потока : 24,7 Кбайт (0%)Заголовок : SimplifiedЯзык : ChineseDefault : НетForced : Нет

Текст #21Идентификатор : 24Формат : UTF-8Идентификатор кодека : S_TEXT/UTF8Идентификатор кодека/Информация : UTF-8 Plain TextПродолжительность : 41 м.Битрейт : 75 бит/секCount of elements : 685Размер потока : 23,0 Кбайт (0%)Заголовок : TraditionalЯзык : ChineseDefault : НетForced : Нет


Трекер:  [ 11-Июл-2018 10:48 ]

  

Скачать .torrent

Размер .torrent файла 176 KB


Размер: 34.71 GB
Хэш (hash) релиза: 7bf0cb54ca5dfc23d2336ef1e79cec2418b20347
Подписка на обновления:

Еще никто не оставлял запись к записи скачать торрент Девственница Джейн Jane the Virgin . Будь первым!

!Обратная связь