Running Man Episode 204 | The Cognition season 10 episode 22 | Bianca Comparato

Скачать через торрент Титаник Titanic Фильм бесплатно в хорошем качестве torrent

Скачивайте на UnionPeer.org фильмы через торрент без регистрации. Новинки кино в хорошем качестве через торрент. На UnionPeer.org можно скачать через торрент фильмы 2014 и 2015 годов. Самые новые фильмы.

Скачать торрент Титаник Titanic бесплатно через .torrent фильм мультфильм сериал

Статистика раздачи
Размер:  37.75 GB   |    Зарегистрирован:  7 дней   |    .torrent скачан:  25 раз   |   
Раздают:  1  
   
загрузка...
 
Автор Сообщение

Galfimbul

avatar Galfimbul


Титаник / Titanic

Год выпуска: 2012
Страна: Великобритания, Канада, Венгрия
Жанр: Драма
Продолжительность: 4 x ~ 00:45:00

Перевод: Профессиональный (многоголосый закадровый)

Режиссёр: Джон Джонс / Jon Jones
В ролях: Питер МакДональд, Стивен Вэддингтон, Рут Брэдли, Глен Блэкхолл, Джорджия МакКатчен, Антонио Магро, Дженна-Луиз Коулмэн, Стивен Кэмпбелл Мур, Ллойд Хатчинсон, Пердита Викс

Описание: Новый проект «Титаник» представляет собой версию трагических событий, которые имели место в северной Атлантике в 1912 году. Катастрофа Титаника самое известное и масштабное кораблекрушение в истории мореплавания. Корабль, построенный в 1912 год, отправился в свое первое и последнее плавание из английского Саутгемптона в Нью-Йорк.

Это был крупнейший на тот момент пассажирский лайнер, на борту которого легко размещались более двух тысяч человек. Конструкторы утверждали, что благодаря своей конструкции корабль практически непотопляем. На борту присутствовали как миллионеры, известные актеры и аристократы, так и простые люди, которые ехали на нижних палубах в тесноте.

С момента отплытия и до катастрофы жизнь на корабле протекала в обычном для того времени ритме. К услугам богатых пассажиров были все блага цивилизации, а простые люди были вынуждены почти все время проводить в душных каютах нижней палубы.

И только когда корабль столкнулся с айсбергом и начал тонуть, стало ясно, что перед лицом неминуемой смерти все равны — и миллионеры, и простые рабочие…



Качество: Blu-Ray Remux 1080p
Контейнер: MKV
Видео: MPEG-4 AVC, 1920x1080 [16:9], 23.976 fps, ~ 25500 Kbps
Аудио 1: [Русский] DTS-MA, 48 kHz, 6 ch, 2423 Kbps - Кармен Видео
Аудио 2: [Английский] DTS-MA, 48 kHz, 6 ch, 2007 Kbps
Субтитры: Русские, английские
Релиз Films.Club - BenderBEST
ОбщееУникальный идентификатор : 255736579794256102934860312941292401293 (0xC06512DD5A9D00DFB650336297FFB28D)Полное имя : S:\Новая папка\Llama.Llama.S01.1080p.NF.WEB-DL.Rus.Eng_CasStudio\Llama.Llama.S01E01.Zoom.Zoom.Zoom..Lost.Tooth.1080p.NF.WEB-DL.Rus.Eng_CasStudio.mkvФормат : MatroskaВерсия формата : Version 4 / Version 2Размер файла : 752 МбайтПродолжительность : 24 м.Режим общего битрейта : ПеременныйОбщий поток : 4286 Кбит/секДата кодирования : UTC 2018-06-19 03:45:19Программа кодирования : mkvmerge v24.0.0 ('Beyond The Pale') 64-bitБиблиотека кодирования : libebml v1.3.6 + libmatroska v1.4.9

ВидеоИдентификатор : 1Формат : AVCФормат/Информация : Advanced Video CodecПрофиль формата : [email protected]Параметр CABAC формата : ДаПараметр ReFrames формата : 3 кадраИдентификатор кодека : V_MPEG4/ISO/AVCПродолжительность : 24 м.Вид битрейта : ПеременныйБитрейт : 3650 Кбит/секМаксимальный битрейт : 5475 Кбит/секШирина : 1920 пикселейВысота : 1080 пикселейСоотношение сторон : 16:9Режим частоты кадров : ПостоянныйЧастота кадров : 23,976 (24000/1001) кадра/секЦветовое пространство : YUVСубдискретизация насыщенности : 4:2:0Битовая глубина : 8 битТип развёртки : ПрогрессивнаяБит/(Пиксели*Кадры) : 0.073Размер потока : 617 Мбайт (82%)Библиотека кодирования : x264 core 148Настройки программы : cabac=1 / ref=3 / deblock=1:0:0 / analyse=0x1:0x111 / me=umh / subme=10 / psy=1 / psy_rd=1.00:0.00 / mixed_ref=1 / me_range=24 / chroma_me=1 / trellis=2 / 8x8dct=0 / cqm=0 / deadzone=21,11 / fast_pskip=1 / chroma_qp_offset=-2 / threads=8 / lookahead_threads=1 / sliced_threads=0 / nr=0 / decimate=1 / interlaced=0 / bluray_compat=0 / stitchable=1 / constrained_intra=0 / bframes=2 / b_pyramid=0 / b_adapt=2 / b_bias=0 / direct=3 / weightb=1 / open_gop=0 / weightp=2 / keyint=48 / keyint_min=25 / scenecut=0 / intra_refresh=0 / rc_lookahead=48 / rc=2pass / mbtree=1 / bitrate=3650 / ratetol=1.0 / qcomp=0.50 / qpmin=6 / qpmax=51 / qpstep=4 / cplxblur=20.0 / qblur=0.5 / vbv_maxrate=5475 / vbv_bufsize=7300 / nal_hrd=vbr / filler=0 / ip_ratio=1.40 / aq=1:1.00Default : ДаForced : Нет

Аудио #1Идентификатор : 2Формат : AC-3Формат/Информация : Audio Coding 3Расширение режима : CM (complete main)Параметр Endianness формата : BigИдентификатор кодека : A_AC3Продолжительность : 24 м.Вид битрейта : ПостоянныйБитрейт : 384 Кбит/секКаналы : 6 каналовРасположение каналов : Front: L C R, Side: L R, LFEЧастота : 48,0 КГцЧастота кадров : 31,250 кадров/сек (1536 spf)Метод сжатия : С потерямиРазмер потока : 67,4 Мбайт (9%)Язык : RussianDefault : ДаForced : Нет

Аудио #2Идентификатор : 3Формат : AC-3Формат/Информация : Audio Coding 3Расширение режима : CM (complete main)Параметр Endianness формата : BigИдентификатор кодека : A_AC3Продолжительность : 24 м.Вид битрейта : ПостоянныйБитрейт : 384 Кбит/секКаналы : 6 каналовРасположение каналов : Front: L C R, Side: L R, LFEЧастота : 48,0 КГцЧастота кадров : 31,250 кадров/сек (1536 spf)Метод сжатия : С потерямиРазмер потока : 67,4 Мбайт (9%)Заголовок : EnglishЯзык : EnglishDefault : НетForced : Нет

Текст #1Идентификатор : 4Формат : UTF-8Идентификатор кодека : S_TEXT/UTF8Идентификатор кодека/Информация : UTF-8 Plain TextПродолжительность : 1 с. 668 мс.Битрейт : 258 бит/секCount of elements : 1Размер потока : 54,0 байт (0%)Заголовок : ForcedЯзык : RussianDefault : ДаForced : Да

Текст #2Идентификатор : 5Формат : UTF-8Идентификатор кодека : S_TEXT/UTF8Идентификатор кодека/Информация : UTF-8 Plain TextПродолжительность : 23 м.Битрейт : 78 бит/секCount of elements : 317Размер потока : 13,3 Кбайт (0%)Заголовок : SDHЯзык : EnglishDefault : НетForced : Нет

Текст #3Идентификатор : 6Формат : UTF-8Идентификатор кодека : S_TEXT/UTF8Идентификатор кодека/Информация : UTF-8 Plain TextПродолжительность : 22 м.Битрейт : 120 бит/секCount of elements : 294Размер потока : 20,1 Кбайт (0%)Язык : ArabicDefault : НетForced : Нет

Текст #4Идентификатор : 7Формат : UTF-8Идентификатор кодека : S_TEXT/UTF8Идентификатор кодека/Информация : UTF-8 Plain TextПродолжительность : 23 м.Битрейт : 134 бит/секCount of elements : 301Размер потока : 22,8 Кбайт (0%)Язык : BulgarianDefault : НетForced : Нет

Текст #5Идентификатор : 8Формат : UTF-8Идентификатор кодека : S_TEXT/UTF8Идентификатор кодека/Информация : UTF-8 Plain TextПродолжительность : 22 м.Битрейт : 71 бит/секCount of elements : 275Размер потока : 12,0 Кбайт (0%)Язык : DanishDefault : НетForced : Нет

Текст #6Идентификатор : 9Формат : UTF-8Идентификатор кодека : S_TEXT/UTF8Идентификатор кодека/Информация : UTF-8 Plain TextПродолжительность : 22 м.Битрейт : 75 бит/секCount of elements : 289Размер потока : 12,6 Кбайт (0%)Язык : GermanDefault : НетForced : Нет

Текст #7Идентификатор : 10Формат : UTF-8Идентификатор кодека : S_TEXT/UTF8Идентификатор кодека/Информация : UTF-8 Plain TextПродолжительность : 22 м.Битрейт : 116 бит/секCount of elements : 294Размер потока : 19,5 Кбайт (0%)Язык : GreekDefault : НетForced : Нет

Текст #8Идентификатор : 11Формат : UTF-8Идентификатор кодека : S_TEXT/UTF8Идентификатор кодека/Информация : UTF-8 Plain TextПродолжительность : 22 м.Битрейт : 67 бит/секCount of elements : 292Размер потока : 11,2 Кбайт (0%)Язык : SpanishDefault : НетForced : Нет

Текст #9Идентификатор : 12Формат : UTF-8Идентификатор кодека : S_TEXT/UTF8Идентификатор кодека/Информация : UTF-8 Plain TextПродолжительность : 22 м.Битрейт : 77 бит/секCount of elements : 294Размер потока : 13,0 Кбайт (0%)Заголовок : EuropeanЯзык : SpanishDefault : НетForced : Нет

Текст #10Идентификатор : 13Формат : UTF-8Идентификатор кодека : S_TEXT/UTF8Идентификатор кодека/Информация : UTF-8 Plain TextПродолжительность : 22 м.Битрейт : 66 бит/секCount of elements : 273Размер потока : 11,2 Кбайт (0%)Язык : FinnishDefault : НетForced : Нет

Текст #11Идентификатор : 14Формат : UTF-8Идентификатор кодека : S_TEXT/UTF8Идентификатор кодека/Информация : UTF-8 Plain TextПродолжительность : 22 м.Битрейт : 77 бит/секCount of elements : 295Размер потока : 12,9 Кбайт (0%)Язык : FrenchDefault : НетForced : Нет

Текст #12Идентификатор : 15Формат : UTF-8Идентификатор кодека : S_TEXT/UTF8Идентификатор кодека/Информация : UTF-8 Plain TextПродолжительность : 22 м.Битрейт : 113 бит/секCount of elements : 293Размер потока : 18,9 Кбайт (0%)Язык : HebrewDefault : НетForced : Нет

Текст #13Идентификатор : 16Формат : UTF-8Идентификатор кодека : S_TEXT/UTF8Идентификатор кодека/Информация : UTF-8 Plain TextПродолжительность : 22 м.Битрейт : 66 бит/секCount of elements : 283Размер потока : 11,2 Кбайт (0%)Язык : ItalianDefault : НетForced : Нет

Текст #14Идентификатор : 17Формат : UTF-8Идентификатор кодека : S_TEXT/UTF8Идентификатор кодека/Информация : UTF-8 Plain TextПродолжительность : 22 м.Битрейт : 83 бит/секCount of elements : 314Размер потока : 14,0 Кбайт (0%)Язык : JapaneseDefault : НетForced : Нет

Текст #15Идентификатор : 18Формат : UTF-8Идентификатор кодека : S_TEXT/UTF8Идентификатор кодека/Информация : UTF-8 Plain TextПродолжительность : 22 м.Битрейт : 83 бит/секCount of elements : 298Размер потока : 14,0 Кбайт (0%)Язык : KoreanDefault : НетForced : Нет

Текст #16Идентификатор : 19Формат : UTF-8Идентификатор кодека : S_TEXT/UTF8Идентификатор кодека/Информация : UTF-8 Plain TextПродолжительность : 22 м.Битрейт : 65 бит/секCount of elements : 274Размер потока : 11,0 Кбайт (0%)Язык : Norwegian BokmalDefault : НетForced : Нет

Текст #17Идентификатор : 20Формат : UTF-8Идентификатор кодека : S_TEXT/UTF8Идентификатор кодека/Информация : UTF-8 Plain TextПродолжительность : 22 м.Битрейт : 65 бит/секCount of elements : 279Размер потока : 10,9 Кбайт (0%)Язык : DutchDefault : НетForced : Нет

Текст #18Идентификатор : 21Формат : UTF-8Идентификатор кодека : S_TEXT/UTF8Идентификатор кодека/Информация : UTF-8 Plain TextПродолжительность : 22 м.Битрейт : 65 бит/секCount of elements : 303Размер потока : 11,0 Кбайт (0%)Язык : PolishDefault : НетForced : Нет

Текст #19Идентификатор : 22Формат : UTF-8Идентификатор кодека : S_TEXT/UTF8Идентификатор кодека/Информация : UTF-8 Plain TextПродолжительность : 22 м.Битрейт : 65 бит/секCount of elements : 289Размер потока : 10,9 Кбайт (0%)Язык : PortugueseDefault : НетForced : Нет

Текст #20Идентификатор : 23Формат : UTF-8Идентификатор кодека : S_TEXT/UTF8Идентификатор кодека/Информация : UTF-8 Plain TextПродолжительность : 22 м.Битрейт : 70 бит/секCount of elements : 290Размер потока : 11,8 Кбайт (0%)Заголовок : BrazilianЯзык : PortugueseDefault : НетForced : Нет

Текст #21Идентификатор : 24Формат : UTF-8Идентификатор кодека : S_TEXT/UTF8Идентификатор кодека/Информация : UTF-8 Plain TextПродолжительность : 22 м.Битрейт : 66 бит/секCount of elements : 287Размер потока : 11,1 Кбайт (0%)Язык : RomanianDefault : НетForced : Нет

Текст #22Идентификатор : 25Формат : UTF-8Идентификатор кодека : S_TEXT/UTF8Идентификатор кодека/Информация : UTF-8 Plain TextПродолжительность : 22 м.Битрейт : 101 бит/секCount of elements : 299Размер потока : 17,0 Кбайт (0%)Язык : RussianDefault : НетForced : Нет

Текст #23Идентификатор : 26Формат : UTF-8Идентификатор кодека : S_TEXT/UTF8Идентификатор кодека/Информация : UTF-8 Plain TextПродолжительность : 22 м.Битрейт : 69 бит/секCount of elements : 286Размер потока : 11,5 Кбайт (0%)Язык : SwedishDefault : НетForced : Нет

Текст #24Идентификатор : 27Формат : UTF-8Идентификатор кодека : S_TEXT/UTF8Идентификатор кодека/Информация : UTF-8 Plain TextПродолжительность : 22 м.Битрейт : 169 бит/секCount of elements : 305Размер потока : 28,3 Кбайт (0%)Язык : ThaiDefault : НетForced : Нет

Текст #25Идентификатор : 28Формат : UTF-8Идентификатор кодека : S_TEXT/UTF8Идентификатор кодека/Информация : UTF-8 Plain TextПродолжительность : 22 м.Битрейт : 75 бит/секCount of elements : 294Размер потока : 12,6 Кбайт (0%)Язык : TurkishDefault : НетForced : Нет

Текст #26Идентификатор : 29Формат : UTF-8Идентификатор кодека : S_TEXT/UTF8Идентификатор кодека/Информация : UTF-8 Plain TextПродолжительность : 22 м.Битрейт : 68 бит/секCount of elements : 292Размер потока : 11,4 Кбайт (0%)Заголовок : SimplifiedЯзык : ChineseDefault : НетForced : Нет

Текст #27Идентификатор : 30Формат : UTF-8Идентификатор кодека : S_TEXT/UTF8Идентификатор кодека/Информация : UTF-8 Plain TextПродолжительность : 22 м.Битрейт : 68 бит/секCount of elements : 293Размер потока : 11,4 Кбайт (0%)Заголовок : TraditionalЯзык : ChineseDefault : НетForced : Нет


Трекер:  [ 11-Июл-2018 09:48 ]

  

Скачать .torrent

Размер .torrent файла 189 KB


Размер: 37.75 GB
Хэш (hash) релиза: eff23abd65c0e89fc0bbd44410b5f1745b17e3d7
Подписка на обновления:

Еще никто не оставлял запись к записи скачать торрент Титаник Titanic . Будь первым!

!Обратная связь