Men Of Honor ( Journey's End ) | DOOM [incl all updates] [2016] | Charité

Скачать через торрент Полумиры Halfworlds Фильм бесплатно в хорошем качестве torrent

Скачивайте на UnionPeer.org фильмы через торрент без регистрации. Новинки кино в хорошем качестве через торрент. На UnionPeer.org можно скачать через торрент фильмы 2014 и 2015 годов. Самые новые фильмы.

Скачать торрент Полумиры Halfworlds бесплатно через .torrent фильм мультфильм сериал

Статистика раздачи
Размер:  5.12 GB   |    Зарегистрирован:  2 месяца 11 дней   |    .torrent скачан:  31 раз   |   
Раздают:  1  
   
загрузка...
 
Автор Сообщение

Galfimbul

avatar Galfimbul


Полумиры | Halfworlds

Год выпуска: 2016
Страна: Индонезия
Жанр: ужасы, фэнтези, триллер, детектив
Продолжительность: ~00:45:00

Перевод: Любительский (двухголосый закадровый) ViruseProject

Режиссёр: Джоко Анвар, Экачай Уэкронгтам
В ролях: Арифин Путра, Алекс Аббад, Бронт Паларэ, Тханаборди Йаиен, Джейк Макапагал и др.

Описание: С давних времен на шумных улицах Джакарты сосуществовали два параллельных мира: мир людей и мир кровожадных мифологических существ. Этим существам, демитам, принимающим человеческий облик, веками удавалось скрываться благодаря влиятельному семейству смертных. Загадочное сверхъестественное событие под названием Дар откроет для смертных этот скрытый мир. Накануне дня Дара молодая художница Сара неожиданно оказывается в эпицентре событий. Когда демиты узнают, кто на самом деле эта Сара, и что она должна сделать, возникает неминуемый конфликт, который поставит под угрозу равновесие между этими двумя мирами.

Качество: WEB-DL 1080p
Контейнер: MKV
Видео: 1920 x 1080 (16:9), ~7 700 Kbps, 23.976 fps, 8 bits
Аудио 1: 48 kHz, AAC, 2/0 (L,R) ch, 192 kb/s
Аудио 2: 48 kHz, AC-3, 2/0 (L,R) ch, 224 kb/s
Субтитры: русские, английские

Реклама: В аудио в начале и конце по 12 секунд.

Внимание! Раздача ведётся путём добавления новых серий; при каждом добавлении создаётся новый торрент. Чтобы начать докачку новой серии, пользователям необходимо сделать следующее:
(1) остановить скачивание,
(2) удалить старый торрент у себя из клиента (старые серии удалять не надо),
(3) скачать новый торрент и запустить его у себя в клиенте вместо старого, при этом указать клиенту путь в старую папку куда и должно происходить скачивание новых серий.

Eсли вы уже удалили старые серии, то предотвратить повторную закачку старых серий можно, отжав галочку в соответствующих местах при запуске нового торрента. По возможности, желательно не удалять старые серии как можно дольше чтобы релизёр не столько продолжал раздавать старые серии, а смог сконцентрироваться на новых.
General
Unique ID : 174041200199667694904966522475238650140 (0x82EF1DABC3A13F108E4736D975E7F11C)
Complete name : E:\ОЗВУЧКА\777ЗАЛИВ777\Halfworlds.S02.ViruseProject\Halfworlds.S02.1080p.ViruseProject\Halfworlds.S02E01.1080p.WEB-DL.ViruseProject.mkv
Format : Matroska
Format version : Version 4 / Version 2
File size : 2.74 GiB
Duration : 48 min 37 s
Overall bit rate mode : Variable
Overall bit rate : 8 065 kb/s
Encoded date : UTC 2018-07-10 10:42:43
Writing application : mkvmerge v8.3.0 ('Over the Horizon') 64bit
Writing library : libebml v1.3.1 + libmatroska v1.4.2

Video
ID : 1
Format : AVC
Format/Info : Advanced Video Codec
Format profile : [email protected]
Format settings, CABAC : Yes
Format settings, ReFrames : 4 frames
Codec ID : V_MPEG4/ISO/AVC
Duration : 48 min 36 s
Bit rate mode : Variable
Bit rate : 7 649 kb/s
Maximum bit rate : 15.0 Mb/s
Width : 1 920 pixels
Height : 1 080 pixels
Display aspect ratio : 16:9
Frame rate mode : Constant
Frame rate : 23.976 (24000/1001) FPS
Color space : YUV
Chroma subsampling : 4:2:0
Bit depth : 8 bits
Scan type : Progressive
Bits/(Pixel*Frame) : 0.154
Stream size : 2.60 GiB (95%)
Default : Yes
Forced : No
Color range : Limited
Color primaries : BT.709
Transfer characteristics : BT.709
Matrix coefficients : BT.709

Audio #1
ID : 2
Format : AAC
Format/Info : Advanced Audio Codec
Format profile : LC
Codec ID : A_AAC
Duration : 48 min 37 s
Bit rate : 192 kb/s
Channel(s) : 2 channels
Channel positions : Front: L R
Sampling rate : 48.0 kHz
Frame rate : 46.875 FPS (1024 spf)
Compression mode : Lossy
Stream size : 66.8 MiB (2%)
Title : ViruseProject
Language : Russian
Default : No
Forced : No

Audio #2
ID : 3
Format : E-AC-3
Format/Info : Enhanced Audio Coding 3
Format settings, Endianness : Big
Codec ID : A_EAC3
Duration : 48 min 36 s
Bit rate mode : Constant
Bit rate : 224 kb/s
Channel(s) : 2 channels
Channel positions : Front: L R
Sampling rate : 48.0 kHz
Frame rate : 187.500 FPS (256 spf)
Compression mode : Lossy
Stream size : 77.9 MiB (3%)
Language : English
Service kind : Complete Main
Default : No
Forced : No

Text #1
ID : 4
Format : UTF-8
Codec ID : S_TEXT/UTF8
Codec ID/Info : UTF-8 Plain Text
Duration : 43 min 1 s
Bit rate : 41 b/s
Count of elements : 333
Stream size : 13.1 KiB (0%)
Title : ViruseProject
Language : Russian
Default : No
Forced : No

Text #2
ID : 5
Format : UTF-8
Codec ID : S_TEXT/UTF8
Codec ID/Info : UTF-8 Plain Text
Duration : 45 min 13 s
Bit rate : 28 b/s
Count of elements : 476
Stream size : 9.60 KiB (0%)
Language : English
Default : No
Forced : No
[b]Предыдущие и альтернативные раздачи

Трекер:  [ 11-Июл-2018 06:48 ]

  

Скачать .torrent

Размер .torrent файла 26 KB


Размер: 5.12 GB
Хэш (hash) релиза: 24777d49b31008ca9af92f64605e9fd7d57cfabc
Подписка на обновления:

Еще никто не оставлял запись к записи скачать торрент Полумиры Halfworlds . Будь первым!

!Обратная связь