Wunderwelt Wissen (1) | Hi☆sCoool! SeHa Girls | Untergetaucht (3)

Скачать через торрент Инструкция по разводу для женщин Girlfriends Guide to Divorce Фильм бесплатно в хорошем качестве torrent

Скачивайте на UnionPeer.org фильмы через торрент без регистрации. Новинки кино в хорошем качестве через торрент. На UnionPeer.org можно скачать через торрент фильмы 2014 и 2015 годов. Самые новые фильмы.

Скачать торрент Инструкция по разводу для женщин Girlfriends Guide to Divorce бесплатно через .torrent фильм мультфильм сериал

Статистика раздачи
Размер:  515 MB   |    Зарегистрирован:  2 месяца 11 дней   |    .torrent скачан:  27 раз   |   
Раздают:  1  
   
загрузка...
 
Автор Сообщение

Galfimbul

avatar Galfimbul


Инструкция по разводу для женщин / Girlfriends' Guide to Divorce


Год выпуска: 2018
Страна: США
Жанр: Комедия, драма
Продолжительность: ~ 00:44:00

Перевод: Профессиональный (многоголосый закадровый) | Jaskier
Режиссёр: Адам Брукс, Лесли Либман, Роберт Данкан МакНил

В ролях: Лиза Эдельстейн, Джанин Гарофало, Бо Гарретт, Аланна Юбак, Некар Задеган, Пол Адельштейн

Описание: Эбби МакКарти — 40-летняя писательница из Лос-Анджелеса, автор бестселлеров, призванных помочь женщинам наладить личную жизнь. Втайне от окружающих Эбби переживает разрыв с мужем и пытается начать жизнь заново. Теперь она гораздо чаще общается со своими разведенными подругами, нежели с замужними, и обращается к ним за советом. Внезапные перемены в жизни открывают ей целый мир новых возможностей и не испытанных ранее ощущений.



Качество: WEB-DLRip
Формат: AVI
Видео: XviD, ~ 1400 kbps, 720x400, 23.976 fps
Аудио 1: MP3, 48,0 КГц, 2 ch, 128 kbps - RUS
Аудио 2: MP3, 48,0 КГц, 2 ch, 128 kbps - ENG
Субтитры: отсутствуют
Реклама: аудио, два раза в начале и в конце по 13 секунд
Ссылка на предыдущие и альтернативные раздачи
Общее
Формат                                   : AVI
Формат/Информация                        : Audio Video Interleave
Размер файла                             : 515 Мбайт
Продолжительность                        : 43 м.
Общий поток                              : 1670 Кбит/сек
Программа кодирования                    : VirtualDubMod 1.5.10.3 | www.virtualdub-fr.org || (build 2550/release)
Библиотека кодирования                   : VirtualDubMod build 2550/release

Видео
Идентификатор                            : 0
Формат                                   : MPEG-4 Visual
Профиль формата                          : Advanced [email protected]
Параметр BVOP формата                    : 2
Параметр QPel формата                    : Нет
Параметр GMC формата                     : Без точки перехода
Параметр матрицы формата                 : Выборочная
Идентификатор кодека                     : XVID
Идентификатор кодека/Подсказка           : XviD
Продолжительность                        : 43 м.
Битрейт                                  : 1400 Кбит/сек
Ширина                                   : 720 пикселей
Высота                                   : 400 пикселей
Соотношение сторон                       : 16:9
Частота кадров                           : 23,976 (23976/1000) кадра/сек
Цветовое пространство                    : YUV
Субдискретизация насыщенности            : 4:2:0
Битовая глубина                          : 8 бит
Тип развёртки                            : Прогрессивная
Метод сжатия                             : С потерями
Бит/(Пиксели*Кадры)                      : 0.203
Размер потока                            : 432 Мбайт (84%)
Библиотека кодирования                   : XviD 73

Аудио #1
Идентификатор                            : 1
Формат                                   : MPEG Audio
Версия формата                           : Version 1
Профиль формата                          : Layer 3
Режим                                    : Joint stereo
Расширение режима                        : MS Stereo
Идентификатор кодека                     : 55
Идентификатор кодека/Подсказка           : MP3
Продолжительность                        : 43 м.
Вид битрейта                             : Постоянный
Битрейт                                  : 128 Кбит/сек
Каналы                                   : 2 канала
Частота                                  : 48,0 КГц
Метод сжатия                             : С потерями
Размер потока                            : 39,5 Мбайт (8%)
Выравнивание                             : Соединение по промежуткам
Продолжительность промежутка             : 42  мс. (1,00 видеокадр)
Время предзагрузки промежутка            : 504  мс.

Аудио #2
Идентификатор                            : 2
Формат                                   : MPEG Audio
Версия формата                           : Version 1
Профиль формата                          : Layer 3
Режим                                    : Joint stereo
Расширение режима                        : MS Stereo
Идентификатор кодека                     : 55
Идентификатор кодека/Подсказка           : MP3
Продолжительность                        : 43 м.
Вид битрейта                             : Постоянный
Битрейт                                  : 128 Кбит/сек
Каналы                                   : 2 канала
Частота                                  : 48,0 КГц
Метод сжатия                             : С потерями
Размер потока                            : 39,5 Мбайт (8%)
Выравнивание                             : Соединение по промежуткам
Продолжительность промежутка             : 42  мс. (1,00 видеокадр)
Время предзагрузки промежутка            : 504  мс.
Когда раздача ведётся путём добавления новых серий, при каждом добавлении создётся новый торрент. Чтобы начать докачку новой серии, пользователям необходимо сделать следующее:
(1) остановить скачивание,
(2) удалить старый торрент у себя из клиента (старые серии удалять не надо),
(3) скачать новый торрент и запустить его у себя в клиенте вместо старого, при этом указать клиенту путь в старую папку, куда и должно происходить скачивание новых серий.
Ваш клиент при этом должен произвести хеширование (проверку) старой папки (если не производит сам - помогите ему сделать это), и будет докачивать только те серии, которых у вас ещё нет. Старые серии при этом не удаляются, а продолжают раздаваться!
Eсли вы уже удалили старые серии, то предотвратить повторную закачку старых серий можно, отжав галочку в соответсвующих местах при запуске нового торрента. По возможности, желательно не удалять старые серии как можно дольше, чтобы релизёр не столько продолжал раздавать старые серии, а смог сконцентрироваться на новых.


Трекер:  [ 10-Июл-2018 21:48 ]

  

Скачать .torrent

Размер .torrent файла 10 KB


Размер: 515 MB
Хэш (hash) релиза: 3dbf07b1f553b504d8b88668271c3b35a32c2696
Подписка на обновления:

Торренты, похожие на Инструкция по разводу для женщин Girlfriends Guide to Divorce скачать торрент

Форум Название Автор Размер S L Добавлен
Зарубежные сериалы ·%· Инструкция по разводу для женщин / Girlfriends' Guide to Divorce / Сезон: 5 / Серии: 1- из 13 (Адам Брукс, Лесли Либман, Роберт Данкан МакНил) [2018, США, Комедия, драма, WEB-DL 720p] MVO (Jaskier) Galfimbul 12359012851.15 GB 0 0 1531304301

13:18

11-Июл-18

Еще никто не оставлял запись к записи скачать торрент Инструкция по разводу для женщин Girlfriends Guide to Divorce . Будь первым!

!Обратная связь