Free only | Into The White DVDRIP | Journeyman – Der Zeitspringer

Скачать через торрент музыку Ведьмак Wiedźmin бесплатно без регистрации torrent

Статистика раздачи
Размер:  309 MB   |    Зарегистрирован:  3 месяца 9 дней   |    .torrent скачан:  28 раз   |   
Раздают:  1  
   
загрузка...
 
Автор Сообщение

Galfimbul

avatar Galfimbul


Ведьмак | Wiedźmin
Жанр: Score
Композитор: Grzegorz Ciechowski
Год выпуска диска: 2001
Страна-производитель диска: Poland
Издатель (лейбл): Pomaton
Номер по каталогу: 7243 5 37015 2 9
Аудиокодек: FLAC (*.flac)
Тип рипа: tracks+.cue
Битрейт аудио: lossless
Продолжительность: 00:48:12
Источник: собственный рип
Наличие сканов в содержимом раздачи: да, 600 dpi, jpg.
1. Wiedzmin (05:01)2. Pocalunek Yennefer (02:07)3. Zew Wilka (02:54)4. Pierwsza Rada Jaskra (00:48)5. Oniria (02:09)6. Lawina (02:06)7. Sen Yen (02:11)8. Druga Rada Jaskra (01:09)9. Odnajde Cie Ciri (05:11)10. Uciekajcie (00:44)11. Trzecia Rada Jaskra (00:42)12. Koniec z Banda Renfri (02:05)13. Jak Gwiazdy Nad Traktem (01:48)14. Smierc Renfri (00:44)15. Bajka Dla Malej Driady (02:09)16. Leczenie Ran (01:45)17. Karczma w Blaviken (00:26)18. Zapachnialo Jesienia (01:27)19. Ballada Dla Yen (01:04)20. Czwarta Rada Jaskra (02:06)21. Ratuj Wiedzminie (03:24)22. Nie Pokonasz Milosci (06:12) performed by Robert Gawlinski
Exact Audio Copy V1.3 from 2. September 2016

EAC extraction logfile from 10. July 2018, 11:09

Grzegorz Ciechowski / Wiedzmin

Used drive : ATAPI iHBS312 2 Adapter: 1 ID: 1

Read mode : SecureUtilize accurate stream : YesDefeat audio cache : YesMake use of C2 pointers : No

Read offset correction : 6Overread into Lead-In and Lead-Out : NoFill up missing offset samples with silence : YesDelete leading and trailing silent blocks : NoNull samples used in CRC calculations : YesUsed interface : Native Win32 interface for Win NT & 2000Gap handling : Appended to previous track

Used output format : User Defined EncoderSelected bitrate : 1024 kBit/sQuality : HighAdd ID3 tag : NoCommand line compressor : C:\Program Files\Exact Audio Copy\Flac\flac.exeAdditional command line options : -V -8 -T "Genre=%genre%" -T "Artist=%artist%" -T "Title=%title%" -T "Album=%albumtitle%" -T "Date=%year%" -T "Tracknumber=%tracknr%" -T "Comment=%comment%" %source%

TOC of the extracted CD

Track | Start | Length | Start sector | End sector --------------------------------------------------------- 1 | 0:00.00 | 5:02.27 | 0 | 22676 2 | 5:02.27 | 2:07.62 | 22677 | 32263 3 | 7:10.14 | 2:54.52 | 32264 | 45365 4 | 10:04.66 | 0:48.39 | 45366 | 49004 5 | 10:53.30 | 2:09.39 | 49005 | 58718 6 | 13:02.69 | 2:06.09 | 58719 | 68177 7 | 15:09.03 | 2:11.53 | 68178 | 78055 8 | 17:20.56 | 1:09.52 | 78056 | 83282 9 | 18:30.33 | 5:11.36 | 83283 | 106643 10 | 23:41.69 | 0:44.58 | 106644 | 110001 11 | 24:26.52 | 0:42.21 | 110002 | 113172 12 | 25:08.73 | 2:05.02 | 113173 | 122549 13 | 27:14.00 | 1:48.58 | 122550 | 130707 14 | 29:02.58 | 0:44.67 | 130708 | 134074 15 | 29:47.50 | 2:09.31 | 134075 | 143780 16 | 31:57.06 | 1:45.59 | 143781 | 151714 17 | 33:42.65 | 0:26.13 | 151715 | 153677 18 | 34:09.03 | 1:27.66 | 153678 | 160268 19 | 35:36.69 | 1:04.06 | 160269 | 165074 20 | 36:41.00 | 2:06.39 | 165075 | 174563 21 | 38:47.39 | 3:24.43 | 174564 | 189906 22 | 42:12.07 | 3:42.42 | 189907 | 206598

Track 1

Filename F:\torrent\Wiedzmin_Grzegorz Ciechowski\score\01. Grzegorz Ciechowski - Wiedzmin.wav

Pre-gap length 0:00:02.00

Peak level 97.7 % Extraction speed 5.6 X Track quality 100.0 % Test CRC 88FA6C0E Copy CRC 88FA6C0E Accurately ripped (confidence 5) [377EB546] (AR v2) Copy OK

Track 2

Filename F:\torrent\Wiedzmin_Grzegorz Ciechowski\score\02. Grzegorz Ciechowski - Pocalunek Yennefer.wav

Peak level 97.0 % Extraction speed 4.0 X Track quality 99.9 % Test CRC EE335EEC Copy CRC EE335EEC Accurately ripped (confidence 5) [A4051369] (AR v2) Copy OK

Track 3

Filename F:\torrent\Wiedzmin_Grzegorz Ciechowski\score\03. Grzegorz Ciechowski - Zew wilka.wav

Peak level 97.7 % Extraction speed 6.0 X Track quality 100.0 % Test CRC 72120995 Copy CRC 72120995 Accurately ripped (confidence 4) [D0F30676] (AR v2) Copy OK

Track 4

Filename F:\torrent\Wiedzmin_Grzegorz Ciechowski\score\04. Grzegorz Ciechowski - Pierwsza rada Jaskra.wav

Peak level 97.7 % Extraction speed 4.2 X Track quality 100.0 % Test CRC D1B685FA Copy CRC D1B685FA Accurately ripped (confidence 5) [6B63B90C] (AR v2) Copy OK

Track 5

Filename F:\torrent\Wiedzmin_Grzegorz Ciechowski\score\05. Grzegorz Ciechowski - Oniria.wav

Peak level 97.7 % Extraction speed 6.0 X Track quality 100.0 % Test CRC F88D0756 Copy CRC F88D0756 Accurately ripped (confidence 5) [1F8E103B] (AR v2) Copy OK

Track 6

Filename F:\torrent\Wiedzmin_Grzegorz Ciechowski\score\06. Grzegorz Ciechowski - Lawina.wav

Peak level 97.7 % Extraction speed 6.3 X Track quality 100.0 % Test CRC 47A054D0 Copy CRC 47A054D0 Accurately ripped (confidence 5) [1F8B1568] (AR v2) Copy OK

Track 7

Filename F:\torrent\Wiedzmin_Grzegorz Ciechowski\score\07. Grzegorz Ciechowski - Sen Yen.wav

Peak level 97.7 % Extraction speed 6.5 X Track quality 100.0 % Test CRC EF537CC6 Copy CRC EF537CC6 Accurately ripped (confidence 5) [0E371E86] (AR v2) Copy OK

Track 8

Filename F:\torrent\Wiedzmin_Grzegorz Ciechowski\score\08. Grzegorz Ciechowski - Druga rada Jaskra.wav

Peak level 97.7 % Extraction speed 3.6 X Track quality 99.8 % Test CRC EE197F99 Copy CRC EE197F99 Accurately ripped (confidence 5) [98C112D9] (AR v2) Copy OK

Track 9

Filename F:\torrent\Wiedzmin_Grzegorz Ciechowski\score\09. Grzegorz Ciechowski - Odnajde Cie Ciri.wav

Peak level 97.7 % Extraction speed 7.9 X Track quality 100.0 % Test CRC 0862B0A2 Copy CRC 0862B0A2 Accurately ripped (confidence 5) [84AC0202] (AR v2) Copy OK

Track 10

Filename F:\torrent\Wiedzmin_Grzegorz Ciechowski\score\10. Grzegorz Ciechowski - Uciekajcie.wav

Peak level 97.7 % Extraction speed 5.1 X Track quality 100.0 % Test CRC F5C70464 Copy CRC F5C70464 Accurately ripped (confidence 5) [1FE4D674] (AR v2) Copy OK

Track 11

Filename F:\torrent\Wiedzmin_Grzegorz Ciechowski\score\11. Grzegorz Ciechowski - Trzecia rada Jaskra.wav

Peak level 97.7 % Extraction speed 4.9 X Track quality 100.0 % Test CRC 8189F144 Copy CRC 8189F144 Accurately ripped (confidence 5) [4E2D638B] (AR v2) Copy OK

Track 12

Filename F:\torrent\Wiedzmin_Grzegorz Ciechowski\score\12. Grzegorz Ciechowski - Koniec z Banda Renfri.wav

Peak level 97.7 % Extraction speed 7.3 X Track quality 100.0 % Test CRC FAB5E58D Copy CRC FAB5E58D Accurately ripped (confidence 5) [75D23240] (AR v2) Copy OK

Track 13

Filename F:\torrent\Wiedzmin_Grzegorz Ciechowski\score\13. Grzegorz Ciechowski - Jak gwiazdy nad traktem.wav

Peak level 95.0 % Extraction speed 7.2 X Track quality 100.0 % Test CRC 94F46C60 Copy CRC 94F46C60 Accurately ripped (confidence 5) [493529D0] (AR v2) Copy OK

Track 14

Filename F:\torrent\Wiedzmin_Grzegorz Ciechowski\score\14. Grzegorz Ciechowski - Smierc Renfri.wav

Peak level 97.7 % Extraction speed 5.3 X Track quality 100.0 % Test CRC E7D02568 Copy CRC E7D02568 Accurately ripped (confidence 4) [463E5A65] (AR v2) Copy OK

Track 15

Filename F:\torrent\Wiedzmin_Grzegorz Ciechowski\score\15. Grzegorz Ciechowski - Bajka Dla Malej Driady.wav

Peak level 97.7 % Extraction speed 7.7 X Track quality 100.0 % Test CRC E9DD15F9 Copy CRC E9DD15F9 Accurately ripped (confidence 5) [CEA58B29] (AR v2) Copy OK

Track 16

Filename F:\torrent\Wiedzmin_Grzegorz Ciechowski\score\16. Grzegorz Ciechowski - Leczenie ran.wav

Peak level 92.7 % Extraction speed 7.5 X Track quality 100.0 % Test CRC BD68A020 Copy CRC BD68A020 Accurately ripped (confidence 5) [24D4E1D1] (AR v2) Copy OK

Track 17

Filename F:\torrent\Wiedzmin_Grzegorz Ciechowski\score\17. Grzegorz Ciechowski - Karczma w Blaviken.wav

Peak level 97.1 % Extraction speed 4.2 X Track quality 100.0 % Test CRC E8844424 Copy CRC E8844424 Accurately ripped (confidence 5) [07A5F8AE] (AR v2) Copy OK

Track 18

Filename F:\torrent\Wiedzmin_Grzegorz Ciechowski\score\18. Grzegorz Ciechowski - Zapachnialo Jesienia.wav

Peak level 97.2 % Extraction speed 7.2 X Track quality 100.0 % Test CRC 814C3DBB Copy CRC 814C3DBB Accurately ripped (confidence 5) [266E438D] (AR v2) Copy OK

Track 19

Filename F:\torrent\Wiedzmin_Grzegorz Ciechowski\score\19. Grzegorz Ciechowski - Ballada dla Yen.wav

Peak level 90.8 % Extraction speed 4.2 X Track quality 99.8 % Test CRC 65E62F5D Copy CRC 65E62F5D Accurately ripped (confidence 5) [71AFFA25] (AR v2) Copy OK

Track 20

Filename F:\torrent\Wiedzmin_Grzegorz Ciechowski\score\20. Grzegorz Ciechowski - Czwarta rada Jaskra.wav

Peak level 97.7 % Extraction speed 6.1 X Track quality 99.9 % Test CRC 0830FD1C Copy CRC 0830FD1C Accurately ripped (confidence 5) [FDBFCB30] (AR v2) Copy OK

Track 21

Filename F:\torrent\Wiedzmin_Grzegorz Ciechowski\score\21. Grzegorz Ciechowski - Ratuj Wiedzminie.wav

Peak level 97.7 % Extraction speed 9.2 X Track quality 100.0 % Test CRC 2FD6AAD7 Copy CRC 2FD6AAD7 Accurately ripped (confidence 5) [6AB83C86] (AR v2) Copy OK

Track 22

Filename F:\torrent\Wiedzmin_Grzegorz Ciechowski\score\22. Grzegorz Ciechowski - Nie Pokonasz Milosci - performed by Robert Gawlinski.wav

Peak level 97.7 % Extraction speed 9.5 X Track quality 100.0 % Test CRC B650462D Copy CRC B650462D Accurately ripped (confidence 5) [21709BD6] (AR v2) Copy OK

All tracks accurately ripped

No errors occurred

End of status report

---- CUETools DB Plugin V2.1.6

[CTDB TOCID: rcKMX7wOkjhzzfCfjaGHWtFx_P8-] foundSubmit result: rcKMX7wOkjhzzfCfjaGHWtFx_P8- has been confirmedTrack | CTDB Status 1 | (12/14) Accurately ripped 2 | (12/14) Accurately ripped 3 | (12/14) Accurately ripped 4 | (12/14) Accurately ripped 5 | (12/14) Accurately ripped 6 | (12/14) Accurately ripped 7 | (12/14) Accurately ripped 8 | (12/14) Accurately ripped 9 | (12/14) Accurately ripped 10 | (12/14) Accurately ripped 11 | (12/14) Accurately ripped 12 | (12/14) Accurately ripped 13 | (12/14) Accurately ripped 14 | (12/14) Accurately ripped 15 | (12/14) Accurately ripped 16 | (12/14) Accurately ripped 17 | (14/14) Accurately ripped 18 | (12/14) Accurately ripped 19 | (12/14) Accurately ripped 20 | (11/14) Accurately ripped 21 | (12/14) Accurately ripped 22 | (12/14) Accurately ripped

==== Log checksum EF0FD743CCAA48F2DC9DA9457DBBCC0794EA14CFB7BFCC3AEEFCAD5C7F5BB43C ====
REM GENRE SoundtrackREM DATE 2001REM DISCID 0D0AC216REM COMMENT "ExactAudioCopy v1.3"PERFORMER "Grzegorz Ciechowski"TITLE "Wiedzmin"REM COMPOSER ""FILE "01. Grzegorz Ciechowski - Wiedzmin.wav" WAVE TRACK 01 AUDIO TITLE "Wiedzmin" PERFORMER "Grzegorz Ciechowski" REM COMPOSER "" ISRC PLA550100419 INDEX 01 00:00:00FILE "02. Grzegorz Ciechowski - Pocalunek Yennefer.wav" WAVE TRACK 02 AUDIO TITLE "Pocalunek Yennefer" PERFORMER "Grzegorz Ciechowski" REM COMPOSER "" ISRC PLA550100420 INDEX 01 00:00:00FILE "03. Grzegorz Ciechowski - Zew wilka.wav" WAVE TRACK 03 AUDIO TITLE "Zew wilka" PERFORMER "Grzegorz Ciechowski" REM COMPOSER "" ISRC PLA550100421 INDEX 01 00:00:00FILE "04. Grzegorz Ciechowski - Pierwsza rada Jaskra.wav" WAVE TRACK 04 AUDIO TITLE "Pierwsza rada Jaskra" PERFORMER "Grzegorz Ciechowski" REM COMPOSER "" ISRC PLA550100422 INDEX 01 00:00:00FILE "05. Grzegorz Ciechowski - Oniria.wav" WAVE TRACK 05 AUDIO TITLE "Oniria" PERFORMER "Grzegorz Ciechowski" REM COMPOSER "" ISRC PLA550100423 INDEX 01 00:00:00FILE "06. Grzegorz Ciechowski - Lawina.wav" WAVE TRACK 06 AUDIO TITLE "Lawina" PERFORMER "Grzegorz Ciechowski" REM COMPOSER "" ISRC PLA550100424 INDEX 01 00:00:00FILE "07. Grzegorz Ciechowski - Sen Yen.wav" WAVE TRACK 07 AUDIO TITLE "Sen Yen" PERFORMER "Grzegorz Ciechowski" REM COMPOSER "" ISRC PLA550100425 INDEX 01 00:00:00FILE "08. Grzegorz Ciechowski - Druga rada Jaskra.wav" WAVE TRACK 08 AUDIO TITLE "Druga rada Jaskra" PERFORMER "Grzegorz Ciechowski" REM COMPOSER "" ISRC PLA550100426 INDEX 01 00:00:00FILE "09. Grzegorz Ciechowski - Odnajde Cie Ciri.wav" WAVE TRACK 09 AUDIO TITLE "Odnajde Cie Ciri" PERFORMER "Grzegorz Ciechowski" REM COMPOSER "" ISRC PLA550100427 INDEX 01 00:00:00FILE "10. Grzegorz Ciechowski - Uciekajcie.wav" WAVE TRACK 10 AUDIO TITLE "Uciekajcie" PERFORMER "Grzegorz Ciechowski" REM COMPOSER "" ISRC PLA550100428 INDEX 01 00:00:00FILE "11. Grzegorz Ciechowski - Trzecia rada Jaskra.wav" WAVE TRACK 11 AUDIO TITLE "Trzecia rada Jaskra" PERFORMER "Grzegorz Ciechowski" REM COMPOSER "" ISRC PLA550100429 INDEX 01 00:00:00FILE "12. Grzegorz Ciechowski - Koniec z Banda Renfri.wav" WAVE TRACK 12 AUDIO TITLE "Koniec z Banda Renfri" PERFORMER "Grzegorz Ciechowski" REM COMPOSER "" ISRC PLA550100430 INDEX 01 00:00:00FILE "13. Grzegorz Ciechowski - Jak gwiazdy nad traktem.wav" WAVE TRACK 13 AUDIO TITLE "Jak gwiazdy nad traktem" PERFORMER "Grzegorz Ciechowski" REM COMPOSER "" ISRC PLA550100431 INDEX 01 00:00:00FILE "14. Grzegorz Ciechowski - Smierc Renfri.wav" WAVE TRACK 14 AUDIO TITLE "Smierc Renfri" PERFORMER "Grzegorz Ciechowski" REM COMPOSER "" ISRC PLA550100432 INDEX 01 00:00:00FILE "15. Grzegorz Ciechowski - Bajka Dla Malej Driady.wav" WAVE TRACK 15 AUDIO TITLE "Bajka Dla Malej Driady" PERFORMER "Grzegorz Ciechowski" REM COMPOSER "" ISRC PLA550100433 INDEX 01 00:00:00FILE "16. Grzegorz Ciechowski - Leczenie ran.wav" WAVE TRACK 16 AUDIO TITLE "Leczenie ran" PERFORMER "Grzegorz Ciechowski" REM COMPOSER "" ISRC PLA550100434 INDEX 01 00:00:00FILE "17. Grzegorz Ciechowski - Karczma w Blaviken.wav" WAVE TRACK 17 AUDIO TITLE "Karczma w Blaviken" PERFORMER "Grzegorz Ciechowski" REM COMPOSER "" ISRC PLA550100435 INDEX 01 00:00:00FILE "18. Grzegorz Ciechowski - Zapachnialo Jesienia.wav" WAVE TRACK 18 AUDIO TITLE "Zapachnialo Jesienia" PERFORMER "Grzegorz Ciechowski" REM COMPOSER "" ISRC PLA550100436 INDEX 01 00:00:00FILE "19. Grzegorz Ciechowski - Ballada dla Yen.wav" WAVE TRACK 19 AUDIO TITLE "Ballada dla Yen" PERFORMER "Grzegorz Ciechowski" REM COMPOSER "" ISRC PLA550100437 INDEX 01 00:00:00FILE "20. Grzegorz Ciechowski - Czwarta rada Jaskra.wav" WAVE TRACK 20 AUDIO TITLE "Czwarta rada Jaskra" PERFORMER "Grzegorz Ciechowski" REM COMPOSER "" ISRC PLA550100438 INDEX 01 00:00:00FILE "21. Grzegorz Ciechowski - Ratuj Wiedzminie.wav" WAVE TRACK 21 AUDIO TITLE "Ratuj Wiedzminie" PERFORMER "Grzegorz Ciechowski" REM COMPOSER "" ISRC PLA550100439 INDEX 01 00:00:00FILE "22. Grzegorz Ciechowski - Nie Pokonasz Milosci - performed by Robert Gawlinski.wav" WAVE TRACK 22 AUDIO TITLE "Nie Pokonasz Milosci - performed by Robert Gawlinski " PERFORMER "Grzegorz Ciechowski" REM COMPOSER "" ISRC PLA550100370 INDEX 01 00:00:00


Трекер:  [ 10-Июл-2018 17:36 ]

  

Скачать .torrent

Размер .torrent файла 14 KB


Размер: 309 MB
Хэш (hash) релиза: 5b06ac6555cc918881aa6141994a5a6b043b1939

Еще никто не оставлял запись к записи скачать торрент Ведьмак Wiedźmin . Будь первым!

!Обратная связь